1 сезон

1 сезон

iTunes

1

КиноПоиск HD

Кинопоиск HD

iTunes

13

1 сезон

RePack

30

Новинка

ВАЖНО

ИГРА 18+

pack

RePack

MK11
pack

Легкие деньги

RePack

jed

RePack

fifa19

RePack

RDR2

RePack

NEED FOR SPEED™ PAYBACK

4 сезон

9 сезон

Бесстыжие 9 сезон

Все сериалы

все сериалы на PB.wtf

RePack

FAR CRY 5
  
Magnet ссылка

Такси 3 / Taxi 3 (Жерар Кравчик) [2003 г., Боевик, комедия, криминал, BDRip, Дубляж] pb.wtf

Такси 3 через торрент pb.wtf

Размер: 742 MB | Добавлен: 6 лет 1 мес. назад | Торрент скачан:46 раз
Скачать  

18-02-2015 09:10 Такси 3 Скачать торрент  

Такси 3 / Taxi 3
Год выпуска: 2003
Страна: Франция
Жанр: Боевик, комедия, криминал
Продолжительность: 01:27:01
Перевод: Дубляж
Субтитры: нет

Режиссер: Жерар Кравчик

В ролях: Сами Насери, Фредерик Дифенталь, Бернар Фарси, Бай Лин, Эмма Сьоберг, Марион Котийяр, Эдуард Монтут, Жан-Кристоф Бове, Леон-Пьер Мондини, Бернард Льопис, Жан-Луи Шлессер, Жан-Пьерр Мас, Мишель Нюгартен, Патрис Аббу, Клод Сесе, Сирил Брунет, Бернар Детуш, Филипп Пеймбланк, Давид Габисон, Винсент Тулли, Жерар Кравчик, Дара-Индо Оум, Боннафе Тарбурьеш, Филипп Феррандини, Ширли Кон, Норберт Даверио, Эрик Наггар, Джулиан Насери, Лорен Деспонд, Валеска Шабуи, Франк Фуре, Альберт Лерда, Фредерик Патуа 'Гоби', Кристиан Волднер, Фелисити Нил, Дороти Бэррик, Дженнифер Херрера, Флора Бурникель 'Ким', Тьерри Адлер

Описание: Банда Санта-Клаусов терроризирует Марсель в канун Рождества, обещая обчистить город до основания. Комиссар полиции уже задумал провести крупномасштабную операцию под кодовым названием «Снеговик», в который главная роль отведена таксисту Даниелю и полицейскому Эмильену. Но как бы наши друзья не натворили куда больший вред, чем сами преступники, ведь чтобы поймать «мафию Дедов Морозов» друзья вытворяют на своем такси такое!

Качество: BDRip
Формат: AVI
Видео кодек: XviD
Аудио кодек: MP3
Видео: MPEG-4 ,Xvid (720x304), 1054 Кбит/с, 25.000 кадра/сек
Аудио#1: MP3,2 ch,128 kbps (Rus) 48.0 KHz Дублированный
скриншот   скриншот   скриншот  

Тип потока: Видео
Длительность: 01:27:01
Кодек: MPEG-4 Visual
Кодек/профиль: Advanced Simple@L5
Кодек/ID: XVID
Размеры изображения: 720 x 304 (2.35:1)
Частота кадров: 25.000 fps
Размер потока: 656 MiB (88%)
Битрейт: 1 055 Kbps
Метод сжатия: Lossy
Библиотека кодирования: XviD 1.2.1 (UTC 2008-12-04)
Цветовое пространство: YUV
Тип развёртки: Progressive
Колориметрия: 4:2:0
Глубина: 8 bits
:
Тип потока: Звук #1
Длительность: 01:26:59.352
Кодек: MPEG Audio
Кодек/профиль: Layer 3
Кодек/ID: 55
Частота дискретизации: 48.0 KHz
Каналов: 2 channels
Битрейт: 128 Kbps
Битрейт/тип: Constant
Размер потока: 79.6 MiB (11%)
Метод сжатия: Lossy

pb.wtf



Скачать Такси 3 через торрент https://pic1.kartinco.top/images/9/pmjz7.jpg Скачать фильм Такси 3 через торрент бесплантно в хорошем качестве Описание: Банда Санта-Клаусов терроризирует Марсель в канун Рождества, обещая обчистить город до основания. Комиссар полиции уже задумал ... 10 10 2
Торрент: Зарегистрирован [2015-02-18 09:10] · скачан: 46 раз
Статус: √ проверено
Размер: 742 MB
Как cкачать? Как скачать Такси 3 через торрент | UTorrent

% Раздел Тема Автор DL S | L
Фильмы 2001-2005 [ 1.37 GB ] Такси 3 / Taxi 3 [2003 DVDRip ] Бумер Скачать
1 | 0

28-11-2019 20:33  

Отключить всю рекламу на сайте

    Дорогой пользователь! Огромная просьба, поблагодарите релизера, оцените раздачу и оставьте свои комментарий, если Вы скачали Такси 3 через торрент бесплатно! Внесите свою лепту в развитие PiratBit!
    Комментировать посты могут только пользователи прошедшие не сложную регистрацию
    Показать сообщения:    

    Такси 3 через торрент
    Скачать бесплатно Такси 3
    Такси 3 скачать торрент
    Такси 3 смотреть онлайн
    Cкачать фильм Такси 3 бесплатно
    Такси 3 скачать торрент в хорошем качестве
    Такси 3 смотреть онлайн бесплатно в хорошем качестве


    Вы не можете начинать темы
    Вы не можете отвечать на сообщения
    Вы не можете редактировать свои сообщения
    Вы не можете удалять свои сообщения
    Вы не можете голосовать в опросах
    Вы не можете прикреплять файлы к сообщениям
    Вы можете скачивать файлы