Ссылка на приватное зеркало нашего сайта всего за 1$. Внимание количество ограничено!!!

2 сезон

iTunes

1 сезон

1

2 сезон

2 сезон

iTunes

1 сезон

RePack

30

Новинка

ВАЖНО

ИГРА 18+

pack

RePack

MK11
pack

Забери бонус

RePack

jed

!!Акция!!

Alien_Rage

RePack

fifa19

RePack

Assassins Creed: Odyssey

RePack

NEED FOR SPEED™ PAYBACK

4 сезон

9 сезон

Бесстыжие 9 сезон

Все сериалы

все сериалы на PB.wtf

RePack

FAR CRY 5
  

Бэкстром / Backstrom / Сезон: 1 / Серии 1-6 (13)(Роб Харди, Марк Майлод, Майкл Оффер.) [2015 г., Драма, криминал, комедия, WEB-DL 720p,]MVO(Alternative Production)+Original pb.wtf

Бэкстром через торрент pb.wtf

Размер: 8.88 GB | Добавлен: 5 лет 9 мес. назад | Торрент скачан:55 раз
Скачать  

18-02-2015 09:17 Бэкстром Скачать торрент  


Бэкстром / Backstrom
Год выпуска: 2015
Страна: США
Жанр: Драма, криминал, комедия
Продолжительность: ~00:40:00
Перевод: Любительский многоголосый(Alternative Production)
Субтитры: английский

Режиссер: Роб Харди, Марк Майлод, Майкл Оффер.



В ролях: Рэйн Уилсон, Женевьева Энджелсон, Деннис Хейсбёрт, Бен Холлингсворт, Пейдж Кеннеди и др.

Описание: Детектив Эверет Бекстром обладает скверным характером и находится во власти дурных привычек. Он обидчив, вспыльчив, ленив, злоупотребляет спиртным и предвзято относится к миру. Эгоистичный детектив испытывает нежность к своим рыбкам и бутылке ликера. Однако именно Бекстрома назначают главой Портлендского спецотдела по расследованию особых преступлений, ведь несмотря на самоубийственное поведение, он блестящий сыщик. Эверет со своей командой эксцентричных криминалистов имеют дело с тяжкими и нашумевшими злодеяниями. Подчиненные терпят агрессивного и растрепанного босса, отдавая должное его потрясающему аналитическому мышлению. Словно через сито, Бекстром просеивает все улики, вытаскивая на поверхность темные детали. Его логические выводы и интуиция бьют в десятку. Но надолго ли алкоголик, страдающий ожирением, сохранит ясность ума?

Качество: WEB-DL 720p
Формат: MKV
Видео кодек: AVC
Аудио кодек: AC3
Видео: 1280x720 (16:9), 24.000 fps, 3 955 Kbps (0.179 bit/pixel)
Аудио#1: 48.0 KHz, 6 ch, 384 Kbps, CBR (Russian)
Аудио#2: 48.0 KHz, 6 ch, 384 Kbps, CBR (English)

Работа со звуком: simarhl, skyns61
Сборка: skyns61
General
Unique ID : 200028122306527670953992406136823622784 (0x967C03DA1E417F729F076BFCA34E2C80)
Complete name : G:\Сериалы\Бэкстром Backstrom\Backstrom.S01\Backstrom.S01E01.720p.WEB-DL.DD5.1.mkv
Format : Matroska
Format version : Version 4 / Version 2
File size : 1.52 GiB
Duration : 45mn 18s
Overall bit rate : 4 818 Kbps
Encoded date : UTC 2015-02-05 11:33:58
Writing application : mkvmerge v7.5.0 ('Glass Culture') 64bit built on Jan 4 2015 16:48:44
Writing library : libebml v1.3.1 + libmatroska v1.4.2
_STATISTICS_WRITING_APP : mkvmerge v7.5.0 ('Glass Culture') 64bit built on Jan 4 2015 16:48:44
_STATISTICS_WRITING_DATE_UT : 2015-02-05 11:33:58
_STATISTICS_TAGS : BPS DURATION NUMBER_OF_FRAMES NUMBER_OF_BYTES
DURATION : 00:45:18.272000000
NUMBER_OF_FRAMES : 84946
NUMBER_OF_BYTES : 130477056

Video
ID : 1
Format : AVC
Format/Info : Advanced Video Codec
Format profile : High@L3.1
Format settings, CABAC : No
Format settings, ReFrames : 2 frames
Codec ID : V_MPEG4/ISO/AVC
Duration : 45mn 18s
Bit rate : 3 955 Kbps
Width : 1 280 pixels
Height : 720 pixels
Display aspect ratio : 16:9
Frame rate mode : Constant
Frame rate : 23.976 fps
Color space : YUV
Chroma subsampling : 4:2:0
Bit depth : 8 bits
Scan type : Progressive
Bits/(Pixel*Frame) : 0.179
Stream size : 1.25 GiB (82%)
Language : English
Default : Yes
Forced : No
Color primaries : BT.709
Transfer characteristics : BT.709
Matrix coefficients : BT.709
Color range : Limited

Audio #1
ID : 2
Format : AC-3
Format/Info : Audio Coding 3
Mode extension : CM (complete main)
Format settings, Endianness : Big
Codec ID : A_AC3
Duration : 45mn 18s
Bit rate mode : Constant
Bit rate : 384 Kbps
Channel(s) : 6 channels
Channel positions : Front: L C R, Side: L R, LFE
Sampling rate : 48.0 KHz
Bit depth : 16 bits
Compression mode : Lossy
Stream size : 124 MiB (8%)
Title : Alternative Production 5.1
Language : Russian
Default : Yes
Forced : No

Audio #2
ID : 3
Format : AC-3
Format/Info : Audio Coding 3
Mode extension : CM (complete main)
Format settings, Endianness : Big
Codec ID : A_AC3
Duration : 45mn 18s
Bit rate mode : Constant
Bit rate : 384 Kbps
Channel(s) : 6 channels
Channel positions : Front: L C R, Side: L R, LFE
Sampling rate : 48.0 KHz
Bit depth : 16 bits
Compression mode : Lossy
Stream size : 124 MiB (8%)
Language : English
Default : No
Forced : No

Text
ID : 4
Format : UTF-8
Codec ID : S_TEXT/UTF8
Codec ID/Info : UTF-8 Plain Text
Title : CC
Language : English
Default : No
Forced : No

Когда раздача ведётся путём добавления новых серий, при каждом добавлении создётся новый торрент. Чтобы начать докачку новой серии, пользователям необходимо сделать следующее:
(1) остановить скачивание,
(2) удалить старый торрент у себя из клиента (старые серии удалять не надо),
(3) скачать новый торрент и запустить его у себя в клиенте вместо старого, при этом указать клиенту путь в старую папку, куда и должно происходить скачивание новых серий.
Ваш клиент при этом должен произвести хеширование (проверку) старой папки (если не производит сам - помогите ему сделать это), и будет докачивать только те серии, которых у вас ещё нет. Старые серии при этом не удаляются, а продолжают раздаваться!
Eсли вы уже удалили старые серии, то предотвратить повторную закачку старых серий можно, отжав галочку в соответсвующих местах при запуске нового торрента. По возможности, желательно не удалять старые серии как можно дольше, чтобы релизёр не столько продолжал раздавать старые серии, а смог сконцентрироваться на новых.
pb.wtf



Скачать Бэкстром через торрент http://pic1.kartinco.top/images/9/u39a4.jpg Скачать фильм Бэкстром через торрент бесплантно в хорошем качестве Описание: Детектив Эверет Бекстром обладает скверным характером и находится во власти дурных привычек. Он обидчив, вспыльчив, ленив, ... 10 10 4
Торрент: Зарегистрирован [2015-03-04 14:02] · скачан: 55 раз
Статус: √ проверено
Размер: 8.88 GB
Как cкачать? Как скачать Бэкстром через торрент | qTorrent



Последний раз редактировалось: Assasinca (2015-03-04 13:41), всего редактировалось 2 раз(а)

28-11-2019 20:33  

Отключить всю рекламу на сайте

22-02-2015 09:56 Бэкстром Скачать торрент  

добавлена 6-я серия...pb.wtf





Последний раз редактировалось: Assasinca (2015-03-04 13:40), всего редактировалось 2 раз(а)

24-02-2015 19:27 Бэкстром Скачать торрент  

как сериал?pb.wtf



25-02-2015 13:09 Бэкстром Скачать торрент  

Васярам писал(а):

как сериал?

Доктор Хаус - детективpb.wtf



04-03-2015 15:32 Бэкстром Скачать торрент  

Amaracerasus писал(а):

Васярам писал(а):

как сериал?

Доктор Хаус - детектив

))) и больше ничего не нужно говорить,все сразу стало понятно.pb.wtf



17-03-2015 06:58 Бэкстром Скачать торрент  

когда продолжение? подскажите.pb.wtf



23-03-2015 21:04 Бэкстром Скачать торрент  

прикольный сериал.

"Я-это ты: любитель сериалов. Я читаю положительный отзыв и решаю - надо качать!"
)))pb.wtf



    Дорогой пользователь! Огромная просьба, поблагодарите релизера, оцените раздачу и оставьте свои комментарий, если Вы скачали Бэкстром через торрент бесплатно! Внесите свою лепту в развитие PiratBit!
    Комментировать посты могут только пользователи прошедшие не сложную регистрацию
    Показать сообщения:    

    Бэкстром через торрент
    Скачать бесплатно Бэкстром
    Бэкстром скачать торрент
    Бэкстром смотреть онлайн
    Cкачать фильм Бэкстром бесплатно
    Бэкстром скачать торрент в хорошем качестве
    Бэкстром смотреть онлайн бесплатно в хорошем качестве


    Вы не можете начинать темы
    Вы не можете отвечать на сообщения
    Вы не можете редактировать свои сообщения
    Вы не можете удалять свои сообщения
    Вы не можете голосовать в опросах
    Вы не можете прикреплять файлы к сообщениям
    Вы можете скачивать файлы