1 сезон

1 сезон

iTunes

1

КиноПоиск HD

Кинопоиск HD

iTunes

13

1 сезон

RePack

30

Ultimate

ВАЖНО

ИГРА 18+

pack

RePack

MK11
pack

Легкие деньги

RePack

jed

RePack

fifa19

RePack

RDR2

RePack

NEED FOR SPEED™ PAYBACK

4 сезон

9 сезон

Бесстыжие 9 сезон

Все сериалы

все сериалы на PB.wtf

RePack

FAR CRY 5
  
Magnet ссылка

Перевозчик / The Transporter (Кори Йюен) [2002 г., Боевик, приключения, детектив, BDRip, Дубляж] pb.wtf

Перевозчик через торрент pb.wtf

Размер: 1.46 GB | Добавлен: 6 лет 1 мес. назад | Торрент скачан:178 раз
Скачать  

18-02-2015 10:43 Перевозчик Скачать торрент  

Перевозчик / The Transporter
Год выпуска: 2002
Страна: США,-Франция
Жанр: Боевик, приключения, детектив
Продолжительность: 01:32:32
Перевод: Дубляж
Субтитры: нет

Режиссер: Кори Йюен

В ролях: Джейсон Стэтхэм, Даг Рэнд, Ки Шу, Мэтт Шульц, Рик Янг, Франсуа Берлеан, Тонио Десканвей, Венсан Немет, Жан-Мари Пэрис, Одри Хэмм, Лоран Жюмокур, Кристиан Газио

Описание: Фрэнк Мартин - идеальный перевозчик: любое место назначения, любой груз, никаких вопросов. Залог успеха - в неукоснительном соблюдении трех правил: номер один - никогда не менять условий сделки, номер два - никаких имен, номер три - никогда не заглядывать в багаж. Последний груз, похоже, ничем не отличается от всех прочих. Но когда при его доставке, Фрэнк нарушает правила, он вступает на опасный путь, на котором его ждут страшные тайны и смертельные ловушки...

Качество: BDRip
Формат: AVI
Видео кодек: XviD
Аудио кодек: AC3
Видео: MPEG-4 ,Xvid (720x304), 1870 Кбит/с, 23.976 кадра/сек
Аудио#1: AC3,6 ch,384 kbps (Rus) 48.0 KHz Дубляж
скриншот   скриншот   скриншот  

Тип потока: Видео
Длительность: 01:32:09
Кодек: MPEG-4 Visual
Кодек/профиль: Advanced Simple@L5
Кодек/ID: XVID
Размеры изображения: 720 x 304 (2.35:1)
Частота кадров: 23.976 fps
Размер потока: 1.20 GiB (83%)
Битрейт: 1 870 Kbps
Метод сжатия: Lossy
Библиотека кодирования: XviD 1.2.0.dev47 (UTC 2006-11-01)
Цветовое пространство: YUV
Тип развёртки: Progressive
Колориметрия: 4:2:0
Глубина: 8 bits
:
Тип потока: Звук #1
Длительность: 01:32:09.504
Кодек: AC-3
Кодек/описание: Audio Coding 3
Кодек/ID: 2000
Частота дискретизации: 48.0 KHz
Каналов: 6 channels
Битрейт: 384 Kbps
Битрейт/тип: Constant
Размер потока: 253 MiB (17%)
Глубина: 16 bits
Метод сжатия: Lossy

pb.wtf



Скачать Перевозчик через торрент https://pic1.kartinco.top/images/9/rilom.jpg Скачать фильм Перевозчик через торрент бесплантно в хорошем качестве Описание: Фрэнк Мартин - идеальный перевозчик: любое место назначения, любой груз, никаких вопросов. Залог успеха - в неукоснительном ... 9.8 10 5
Торрент: Зарегистрирован [2015-02-18 10:43] · скачан: 178 раз
Статус: √ проверено
Размер: 1.46 GB
Как cкачать? Как скачать Перевозчик через торрент | UTorrent

% Раздел Тема Автор DL S | L
Фильмы [HD 720p, 1080p] (Хороший звук DUB, MVO) [ 4.71 GB ] Перевозчик / The Transporter [2002 BDRip-HEVC 1080p ] [UnCut Version] DUB [] bober100 Скачать
1 | 0
Фильмы 2015 [DVDrip, WEB-DLRip, HDrip] [ 2.18 GB ] Перевозчик: Наследие / The Transporter Refueled [2015 BDRip-AVC] [RUS Transfer] DUB potroks Скачать
1 | 0
Фильмы (Blu-ray, BD-Remux, HDDVD) [ 27.56 GB ] Перевозчик / The Transporter [2002 BD Remux ] Бумер Скачать
1 | 0
Фильмы [HD 720p, 1080p] (Хороший звук DUB, MVO) [ 7.75 GB ] Перевозчик: Наследие / The Transporter Refueled [2015 BDRip 1080p - [ / BD CEE] Ворон Скачать
1 | 0
Фильмы (DVD фильмы) [ 5.29 GB ] Перевозчик: Наследие / The Transporter Refueled [2015 DVD9] R5 voovaz Скачать
1 | 0
Фильмы [HD 720p, 1080p] (Хороший звук DUB, MVO) [ 13.45 GB ] Перевозчик: Наследие / The Transporter Refueled [2015 BDRip 1080p] DUB Ворон Скачать
1 | 0
Фильмы 2015 [DVDrip, WEB-DLRip, HDrip] [ 1.46 GB ] Перевозчик: Наследие / The Transporter Refueled [2015 BDRip [] Twi7ter Скачать
1 | 0

28-11-2019 20:33  

Отключить всю рекламу на сайте

    Дорогой пользователь! Огромная просьба, поблагодарите релизера, оцените раздачу и оставьте свои комментарий, если Вы скачали Перевозчик через торрент бесплатно! Внесите свою лепту в развитие PiratBit!
    Комментировать посты могут только пользователи прошедшие не сложную регистрацию
    Показать сообщения:    

    Перевозчик через торрент
    Скачать бесплатно Перевозчик
    Перевозчик скачать торрент
    Перевозчик смотреть онлайн
    Cкачать фильм Перевозчик бесплатно
    Перевозчик скачать торрент в хорошем качестве
    Перевозчик смотреть онлайн бесплатно в хорошем качестве


    Вы не можете начинать темы
    Вы не можете отвечать на сообщения
    Вы не можете редактировать свои сообщения
    Вы не можете удалять свои сообщения
    Вы не можете голосовать в опросах
    Вы не можете прикреплять файлы к сообщениям
    Вы можете скачивать файлы