Ссылка на приватное зеркало нашего сайта всего за 1$. Внимание количество ограничено!!!

2 сезон

iTunes

1 сезон

1

iTunes

iTunes

iTunes

1 сезон

RePack

30

ИГРА 18+

pack

ВАЖНО

!!Акция!!

Alien_RageХит недели

RePack

MK11
pack

Забери бонус

RePack

jed

!!Акция!!

Alien_Rage

RePack

fifa19

RePack

Assassins Creed: Odyssey

RePack

NEED FOR SPEED™ PAYBACK

4 сезон

9 сезон

Бесстыжие 9 сезон

Все сериалы

все сериалы на PB.wtf

RePack

FAR CRY 5
  

Двое в пути / Двое на дороге / Two for the Road (Стэнли Донен ) [1967, Мелодрама, BDRip 1080p] [Hi10P] Профессиональный (Многоголосый) [Первый канал] pb.wtf

Двое в пути через торрент pb.wtf

Размер: 11.64 GB | Добавлен: 5 лет 8 мес. назад | Торрент скачан:9 раз
Скачать  

18-02-2015 10:49 Двое в пути Скачать торрент  

Двое в пути / Двое на дороге / Two for the Road
Год выпуска: 1967

Страна: Великобритания

Жанр: Мелодрама

Продолжительность: 01:51:02

Перевод: Профессиональный (Многоголосый) [Первый канал]

Режиссер: Стэнли Донен / Stanley Donen

В ролях: Одри Хепберн / Audrey Hepburn, Альберт Финни / Albert Finney, Элеанор Брон / Eleanor Bron, Уильям Дэниелс / William Daniels, Габриелль Миддлтон / Gabrielle Middleton, Клод Дофен / Claude Dauphin, Надя Грэй / Nadia Gray

Описание: Переживающие кризис супружеской жизни, Марк и Джоанна Уоллес отправляются отдохнуть на французскую Ривьеру, место их знакомства. Будучи студентом, Марк, изучавший памятники европейской архитектуры, встретился там с веселой компанией девушек-музыкантов. Вначале Марку понравилась Джекки, но затем он переключился на Джоанну. Уже поженившись, они ещё не раз совершали поездки по Европе, и каждый раз их брак подвергался испытаниям на прочность. Нынешнее путешествие помогает им понять, что, сколько бы они ни ссорились и какие бы серьезные причины не говорили в пользу развода, они все еще очень любят друг друга...



Качество: BDRip 1080p HDTime *Hi10P*

Контейнер: MKV

Кодек x264 10bit depth (High 10 Profile)

Аудио кодек: AC3

Видео: x264 10bit depth (High 10 Profile) , 1920x1080 (16:9), 23.976 fps, 14.0 Mbps (0.281 bit/pixel)

Аудио #1: AC-3, 48.0 KHz, 2 ch, 192 Kbps, CBR (Russian) MVO

Аудио #2: AC-3, 48.0 KHz, 2 ch, 384 Kbps, CBR (English)

Субтитры: English
Общее

Уникальный идентификатор : 188260688568690172742843586765686656986 (0x8DA1B0933AAFE9789CB0DE6D13514FDA)

Полное имя : C:UsersEsiRVideosготовоеTwo.for.the.Road.P.1967.BDRip.1080p Hi10P.Deadmauvlad.mkv

Формат : Matroska

Версия формата : Version 4 / Version 2

Размер файла : 11,6 Гбайт

Продолжительность : 1 ч. 52 м.

Общий поток : 14,9 Мбит/сек

Название фильма : Reliz Deadmauvlad

Дата кодирования : UTC 2015-02-18 09:35:05

Программа кодирования : mkvmerge v6.1.0 ('Old Devil') built on Mar 4 2013 09:10:42

Библиотека кодирования : libebml v1.3.0 + libmatroska v1.4.0

Видео

Идентификатор : 1

Формат : AVC

Формат/Информация : Advanced Video Codec

Профиль формата : High 10@L5.1

Параметр CABAC формата : Да

Параметр ReFrames формата : 9 кадров

Идентификатор кодека : V_MPEG4/ISO/AVC

Продолжительность : 1 ч. 52 м.

Битрейт : 14,0 Мбит/сек

Ширина : 1920 пикселей

Высота : 1080 пикселей

Соотношение сторон : 16:9

Режим частоты кадров : Постоянный

Частота кадров : 23,976 кадра/сек

Цветовое пространство : YUV

Субдискретизация насыщенности : 4:2:0

Битовая глубина : 10 бит

Тип развёртки : Прогрессивная

Бит/(Пиксели*Кадры) : 0.281

Размер потока : 11,0 Гбайт (94%)

Заголовок : ENCODE HDTime *Hi10P*

Язык : Russian

Default : Да

Forced : Нет

Аудио #1

Идентификатор : 2

Формат : AC-3

Формат/Информация : Audio Coding 3

Расширение режима : CM (complete main)

Параметр Endianness формата : Big

Идентификатор кодека : A_AC3

Продолжительность : 1 ч. 52 м.

Вид битрейта : Постоянный

Битрейт : 192 Кбит/сек

Каналы : 2 канала

Расположение каналов : Front: L R

Частота : 48,0 КГц

Битовая глубина : 16 бит

Метод сжатия : С потерями

Размер потока : 154 Мбайт (1%)

Заголовок : MVO [Первый Канал]

Язык : Russian

Default : Да

Forced : Да

Аудио #2

Идентификатор : 3

Формат : AC-3

Формат/Информация : Audio Coding 3

Расширение режима : CM (complete main)

Параметр Endianness формата : Big

Идентификатор кодека : A_AC3

Продолжительность : 1 ч. 52 м.

Вид битрейта : Постоянный

Битрейт : 384 Кбит/сек

Каналы : 2 канала

Расположение каналов : Front: L R

Частота : 48,0 КГц

Битовая глубина : 16 бит

Метод сжатия : С потерями

Размер потока : 308 Мбайт (3%)

Заголовок : Original Eng AC3 DD 2.0 -384

Язык : English

Default : Нет

Forced : Нет

Текст

Идентификатор : 4

Формат : PGS

Режим смешивания : zlib

Идентификатор кодека : S_HDMV/PGS

Идентификатор кодека/Информация : The same subtitle format used on BDs/HD-DVDs

Заголовок : ENG

Язык : English

Default : Да

Forced : Нет
pb.wtf



Скачать Двое в пути через торрент http://imgur.com/CwXMC.jpg Скачать фильм Двое в пути через торрент бесплантно в хорошем качестве Описание: Переживающие кризис супружеской жизни, Марк и Джоанна Уоллес отправляются отдохнуть на французскую Ривьеру, место их знакомства. ... 10 10 2
Торрент: Зарегистрирован [2015-02-18 10:49] · скачан: 9 раз
Статус: √ проверено
Размер: 11.64 GB
Как cкачать? Как скачать Двое в пути через торрент | qTorrent

28-11-2019 20:33  

Отключить всю рекламу на сайте

    Дорогой пользователь! Огромная просьба, поблагодарите релизера, оцените раздачу и оставьте свои комментарий, если Вы скачали Двое в пути через торрент бесплатно! Внесите свою лепту в развитие PiratBit!
    Комментировать посты могут только пользователи прошедшие не сложную регистрацию
    Показать сообщения:    

    Двое в пути через торрент
    Скачать бесплатно Двое в пути
    Двое в пути скачать торрент
    Двое в пути смотреть онлайн
    Cкачать фильм Двое в пути бесплатно
    Двое в пути скачать торрент в хорошем качестве
    Двое в пути смотреть онлайн бесплатно в хорошем качестве


    Вы не можете начинать темы
    Вы не можете отвечать на сообщения
    Вы не можете редактировать свои сообщения
    Вы не можете удалять свои сообщения
    Вы не можете голосовать в опросах
    Вы не можете прикреплять файлы к сообщениям
    Вы можете скачивать файлы