1 сезон

1 сезон

iTunes

1

КиноПоиск HD

Кинопоиск HD

iTunes

13

1 сезон

RePack

30

Новинка

ВАЖНО

ИГРА 18+

pack

RePack

MK11
pack

Легкие деньги

RePack

jed

RePack

fifa19

RePack

RDR2

RePack

NEED FOR SPEED™ PAYBACK

4 сезон

9 сезон

Бесстыжие 9 сезон

Все сериалы

все сериалы на PB.wtf

RePack

FAR CRY 5
  
Magnet ссылка

Перевозчик 2 / Transporter 2 (Луи Летерье) [2005 г., Боевик, приключения, детектив, BDRip, Дубляж] pb.wtf

Перевозчик 2 через торрент pb.wtf

Размер: 1.45 GB | Добавлен: 6 лет 1 мес. назад | Торрент скачан:144 раза
Скачать  

18-02-2015 11:35 Перевозчик 2 Скачать торрент  

Перевозчик 2 / Transporter 2
Год выпуска: 2005
Страна: США,-Франция
Жанр: Боевик, приключения, детектив
Продолжительность: 01:28:07
Перевод: Дубляж
Субтитры: нет

Режиссер: Луи Летерье

В ролях: Джейсон Стэтхэм, Алессандро Гассман, Эмбер Валлетта, Кейт Наута, Мэтью Модайн, Джейсон Флеминг, Кит Дэвид, Хантер Клэри, Шеннон Бриггс, Франсуа Берлеан

Описание: Бывший сотрудник спецподразделения Фрэнк Мартин, известный также как Перевозчик, уходит от дел и поселяется в Майами, где устраивается шофером в богатую семью. С маленьким сыном этого семейства у него завязываются дружеские отношения.
Когда же мальчика похищают, Мартину приходится использовать свои профессиональные навыки, чтобы вернуть парнишку в целости и сохранности, а также раскрыть зловещий план похитителя…

Качество: BDRip
Формат: AVI
Видео кодек: XviD
Аудио кодек: AC3
Видео: MPEG-4 ,Xvid (720x304), 1955 Кбит/с, 23.976 кадра/сек
Аудио#1: AC3,6 ch,384 kbps (Rus) 48.0 KHz дублированный
скриншот   скриншот   скриншот  

Тип потока: Видео
Длительность: 01:26:08
Кодек: MPEG-4 Visual
Кодек/профиль: Advanced Simple@L5
Кодек/ID: XVID
Размеры изображения: 720 x 304 (2.35:1)
Частота кадров: 23.976 fps
Размер потока: 1.18 GiB (81%)
Битрейт: 1 956 Kbps
Метод сжатия: Lossy
Библиотека кодирования: XviD 1.2.0.dev47 (UTC 2006-11-01)
Цветовое пространство: YUV
Тип развёртки: Progressive
Колориметрия: 4:2:0
Глубина: 8 bits
:
Тип потока: Звук #1
Длительность: 01:26:08.868
Кодек: AC-3
Кодек/описание: Audio Coding 3
Кодек/ID: 2000
Частота дискретизации: 48.0 KHz
Каналов: 6 channels
Битрейт: 448 Kbps
Битрейт/тип: Constant
Размер потока: 276 MiB (19%)
Глубина: 16 bits
Метод сжатия: Lossy

pb.wtf



Скачать Перевозчик 2 через торрент https://pic1.kartinco.top/images/9/25mj4.jpg Скачать фильм Перевозчик 2 через торрент бесплантно в хорошем качестве Описание: Бывший сотрудник спецподразделения Фрэнк Мартин, известный также как Перевозчик, уходит от дел и поселяется в Майами, где ... 10 10 7
Торрент: Зарегистрирован [2015-02-18 11:35] · скачан: 144 раз
Статус: √ проверено
Размер: 1.45 GB
Как cкачать? Как скачать Перевозчик 2 через торрент | UTorrent

% Раздел Тема Автор DL S | L
Фильмы [HD 720p, 1080p] (Хороший звук DUB, MVO) [ 6.55 GB ] Перевозчик 2 / Transporter 2 [2005 BDRip-HEVC 1080p ] DUB [] bober100 Скачать
2 | 0
Зарубежные сериалы [ 7.58 GB ] Перевозчик / Transporter: The Series / Сезон: 2 / Серии 1-12 из 12 [2014 Германия HDTVRip] MVO [BaibaKo] GEKADOL Скачать
1 | 0
Зарубежные сериалы [ 9.86 GB ] Перевозчик / Transporter: The Series / Сезон: 2 / Серии 1-6 из 12 [2014 Германия HDTV720р] MVO [BaibaKo] GEKADOL Скачать
1 | 0
Фильмы (Blu-ray, BD-Remux, HDDVD) [ 22.74 GB ] Перевозчик 2 / Transporter 2 [2005 Blu-ray ] Бумер Скачать
1 | 0
Фильмы [HD 720p, 1080p] (Хороший звук DUB, MVO) [ 7.94 GB ] Перевозчик 2 / The Transporter 2 [2005 BDRip 1080p ] Бумер Скачать
1 | 0
Сборники на DVD и Сиквелы [DVDrip, WEB-DLRip, HDrip, BDRip] [ 4.36 GB ] Перевозчик 123 Трилогия / Transporter 123 Trilogy [2002-2008 BDRip-AVC] Dub mihis Скачать
1 | 0
Сборники на DVD и Сиквелы [DVDrip, WEB-DLRip, HDrip, BDRip] [ 4.36 GB ] Перевозчик 123 / Transporter 123 [2002 2005 2008 BDRip] DUB Joup Скачать
1 | 0

28-11-2019 20:33  

Отключить всю рекламу на сайте

    Дорогой пользователь! Огромная просьба, поблагодарите релизера, оцените раздачу и оставьте свои комментарий, если Вы скачали Перевозчик 2 через торрент бесплатно! Внесите свою лепту в развитие PiratBit!
    Комментировать посты могут только пользователи прошедшие не сложную регистрацию
    Показать сообщения:    

    Перевозчик 2 через торрент
    Скачать бесплатно Перевозчик 2
    Перевозчик 2 скачать торрент
    Перевозчик 2 смотреть онлайн
    Cкачать фильм Перевозчик 2 бесплатно
    Перевозчик 2 скачать торрент в хорошем качестве
    Перевозчик 2 смотреть онлайн бесплатно в хорошем качестве


    Вы не можете начинать темы
    Вы не можете отвечать на сообщения
    Вы не можете редактировать свои сообщения
    Вы не можете удалять свои сообщения
    Вы не можете голосовать в опросах
    Вы не можете прикреплять файлы к сообщениям
    Вы можете скачивать файлы