Ссылка на приватное зеркало нашего сайта всего за 1$. Внимание количество ограничено!!!

2 сезон

iTunes

1 сезон

1

2 сезон

2 сезон

iTunes

1 сезон

RePack

30

Ultimate

ВАЖНО

ИГРА 18+

pack

RePack

MK11
pack

Забери бонус

RePack

jed

!!Акция!!

Alien_Rage

RePack

fifa19

RePack

Assassins Creed: Odyssey

RePack

NEED FOR SPEED™ PAYBACK

4 сезон

9 сезон

Бесстыжие 9 сезон

Все сериалы

все сериалы на PB.wtf

RePack

FAR CRY 5
  

Преданность / Allegiance / 1 сезон / 1-2 серии из 8 (Джордж Нолфи) [2015 г., драма, HDTVRip,] VO pb.wtf

Преданность через торрент pb.wtf

Размер: 1.37 GB | Добавлен: 5 лет 9 мес. назад | Торрент скачан:14 раз
Скачать  

18-02-2015 12:43 Преданность Скачать торрент  

Преданность / Allegiance
Год выпуска: 2015
Страна: США
Жанр: драма
Продолжительность: ~ 00:43:00
Перевод: Любительский одноголосый

Режиссер: Джордж Нолфи



В ролях: Хоуп Дэвис, Скотт Коэн, Маргарита Левиева, Кеннет Чои, Жавин Стенхауз, Алекс Питерс, Флориана Лима, Павел Личникофф, Роман Ройтберг, Билли Калдер

Описание: Американский герой войны, работающий на ЦРУ, не подозревает о том, что члены его семьи в тайне работают на Россию.

Качество: HDTVRip
Формат: AVI
Видео кодек: XviD
Аудио кодек: AC3
Видео: 720x400 (16:9), 23.976 fps, 1 814 Kbps (0.263 bit/pixel)
Аудио#1: 48.0 KHz, 6 ch, 384 Kbps, CBR
General
Complete name : G:\Сериалы\Преданность\Allegiance.2015\Allegiance.2015.S01E01.HDTVRip.700MB.avi
Format : AVI
Format/Info : Audio Video Interleave
File size : 701 MiB
Duration : 44mn 22s
Overall bit rate : 2 207 Kbps
Writing application : VirtualDubMod 1.5.10.3 | www.virtualdub-fr.org || (build 2550/release)
Writing library : VirtualDubMod build 2550/release

Video
ID : 0
Format : MPEG-4 Visual
Format profile : Advanced Simple@L5
Format settings, BVOP : 1
Format settings, QPel : No
Format settings, GMC : No warppoints
Format settings, Matrix : Default (H.263)
Codec ID : XVID
Codec ID/Hint : XviD
Duration : 44mn 22s
Bit rate : 1 814 Kbps
Width : 720 pixels
Height : 400 pixels
Display aspect ratio : 16:9
Frame rate : 23.976 fps
Color space : YUV
Chroma subsampling : 4:2:0
Bit depth : 8 bits
Scan type : Progressive
Compression mode : Lossy
Bits/(Pixel*Frame) : 0.263
Stream size : 576 MiB (82%)
Writing library : XviD 1.2.1 (UTC 2008-12-04)

Audio
ID : 1
Format : AC-3
Format/Info : Audio Coding 3
Mode extension : CM (complete main)
Format settings, Endianness : Big
Codec ID : 2000
Duration : 44mn 22s
Bit rate mode : Constant
Bit rate : 384 Kbps
Channel(s) : 6 channels
Channel positions : Front: L C R, Side: L R, LFE
Sampling rate : 48.0 KHz
Bit depth : 16 bits
Compression mode : Lossy
Stream size : 122 MiB (17%)
Alignment : Split accross interleaves
Interleave, duration : 42 ms (1.00 video frame)
Interleave, preload duratio : 500 ms

Внимание! Раздача ведётся путём добавления новых серий; при каждом добавлении создаётся новый торрент. Чтобы начать докачку новой серии, пользователям необходимо сделать следующее:
(1) остановить скачивание,
(2) удалить старый торрент у себя из клиента (старые серии удалять не надо),
(3) скачать новый торрент и запустить его у себя в клиенте вместо старого, при этом указать клиенту путь в старую папку куда и должно происходить скачивание новых серий.
Ваш клиент при этом должен произвести хеширование (проверку) старой папки (если не производит сам - помогите ему сделать это), и будет докачивать только те серии которых у вас ещё нет. Старые серии при этом не удаляются, а продолжают раздаваться!
Eсли вы уже удалили старые серии, то предотвратить повторную закачку старых серий можно, отжав галочку в соответствующих местах при запуске нового торрента. По возможности, желательно не удалять старые серии как можно дольше чтобы релизёр не столько продолжал раздавать старые серии, а смог сконцентрироваться на новых.
pb.wtf



Скачать Преданность через торрент http://pic1.kartinco.top/images/9/lj24h.jpg Скачать фильм Преданность через торрент бесплантно в хорошем качестве Описание: Американский герой войны, работающий на ЦРУ, не подозревает о том, что члены его семьи в тайне работают на ... 10 10 1
Торрент: Зарегистрирован [2015-02-18 12:43] · скачан: 14 раз
Статус: √ проверено
Размер: 1.37 GB
Как cкачать? Как скачать Преданность через торрент | qTorrent

28-11-2019 20:33  

Отключить всю рекламу на сайте

    Дорогой пользователь! Огромная просьба, поблагодарите релизера, оцените раздачу и оставьте свои комментарий, если Вы скачали Преданность через торрент бесплатно! Внесите свою лепту в развитие PiratBit!
    Комментировать посты могут только пользователи прошедшие не сложную регистрацию
    Показать сообщения:    

    Преданность через торрент
    Скачать бесплатно Преданность
    Преданность скачать торрент
    Преданность смотреть онлайн
    Cкачать фильм Преданность бесплатно
    Преданность скачать торрент в хорошем качестве
    Преданность смотреть онлайн бесплатно в хорошем качестве


    Вы не можете начинать темы
    Вы не можете отвечать на сообщения
    Вы не можете редактировать свои сообщения
    Вы не можете удалять свои сообщения
    Вы не можете голосовать в опросах
    Вы не можете прикреплять файлы к сообщениям
    Вы можете скачивать файлы