Ссылка на приватное зеркало нашего сайта всего за 1$. Внимание количество ограничено!!!

2 сезон

iTunes

1 сезон

1

2 сезон

2 сезон

iTunes

1 сезон

RePack

30

Ultimate

ВАЖНО

ИГРА 18+

pack

RePack

MK11
pack

Забери бонус

RePack

jed

!!Акция!!

Alien_Rage

RePack

fifa19

RePack

Assassins Creed: Odyssey

RePack

NEED FOR SPEED™ PAYBACK

4 сезон

9 сезон

Бесстыжие 9 сезон

Все сериалы

все сериалы на PB.wtf

RePack

FAR CRY 5
  

Кристи / Kristy (Оливер Блэкберн ) [2014, ужасы, триллер, BDRip 1080p, Любительский (двухголосый) [den904, DeadSno] pb.wtf

Кристи через торрент pb.wtf

Размер: 5.27 GB | Добавлен: 5 лет 9 мес. назад | Торрент скачан:52 раза
Скачать  

18-02-2015 13:27 Кристи Скачать торрент  


Кристи / Kristy


ИНФОРМАЦИЯ:
Год выпуска: 2014
Страна: США
Жанр: ужасы, триллер
Продолжительность: 01:25:26
Перевод: Любительский (двухголосый) [den904, DeadSno]
Субтитры: русские (RUS Subtitles (Notabenoid)),
Режиссер: Оливер Блэкберн

В Ролях:


Хейли Беннетт (Justine), Эшли Грин (Violet), Лукас Тилл (Aaron), Крис Кой (Blue Hoodie), Майкл Сил (Black Hoodie), Каран Хэнсон (Grey Hoodie), Эрика Эш (Nicole), Джеймс Рэнсон (Scott), Мэтью Ст. Патрик (Wayne), Аль Висенте (Dave), Анна Скиданова (Student), Дэйн Родс (Cook)

ОПИСАНИЕ:
Оставшись в одиночестве в кампусе на время празднования Дня Благодарения, студентка вынуждена сражаться с бандой бродяг. Ей предстоит побороть страхи, проявить все свои хитрость и смекалку, чтобы отразить нападение.

  • Мировая премьера:7 августа 2014

    ТЕХ.ДАННЫЕ:
    Качество: BDRip 1080p
    Формат: MKV ✦ Видео кодек: AVC ✦ Аудио кодек: AC3
    Видео: 1920x800 (2.40:1)| 8387 kbps| 23,976 fps| 0,228 bpp
    Аудио: 5.1 | 48 kHz | 448 kbps | 16 bit |
    Навигация по главам: есть


    Код:

    General
    Unique ID                                : 251533828255518896517259957644649934668 (0xBD3BA73738C02E6F9958231DD4F5AF4C)
    Complete name                            : D:\Торенты\Kristy.Random.2014.BDRip.1080p.2D (1).mkv
    Format                                   : Matroska
    Format version                           : Version 4 / Version 2
    File size                                : 5.27 GiB
    Duration                                 : 1h 25mn
    Overall bit rate                         : 8 833 Kbps
    Encoded date                             : UTC 2015-02-18 12:10:40
    Writing application                      : mkvmerge v7.2.0 ('On Every Street') 64bit built on Sep 13 2014 15:52:10
    Writing library                          : libebml v1.3.0 + libmatroska v1.4.1

    Video
    ID                                       : 1
    Format                                   : AVC
    Format/Info                              : Advanced Video Codec
    Format profile                           : High@L4.0
    Format settings, CABAC                   : Yes
    Format settings, ReFrames                : 5 frames
    Codec ID                                 : V_MPEG4/ISO/AVC
    Duration                                 : 1h 25mn
    Bit rate                                 : 8 387 Kbps
    Width                                    : 1 920 pixels
    Height                                   : 800 pixels
    Display aspect ratio                     : 2.40:1
    Frame rate                               : 23.976 fps
    Color space                              : YUV
    Chroma subsampling                       : 4:2:0
    Bit depth                                : 8 bits
    Scan type                                : Progressive
    Bits/(Pixel*Frame)                       : 0.228
    Stream size                              : 4.90 GiB (93%)
    Title                                    : Kristy 2014
    Writing library                          : x264 core 142 r2453 ea0ca51
    Encoding settings                        : cabac=1 / ref=5 / deblock=1:0:0 / analyse=0x3:0x113 / me=umh / subme=8 / psy=1 / psy_rd=1.00:0.00 / mixed_ref=1 / me_range=16 / chroma_me=1 / trellis=1 / 8x8dct=1 / cqm=0 / deadzone=21,11 / fast_pskip=0 / chroma_qp_offset=-2 / threads=6 / lookahead_threads=1 / sliced_threads=0 / nr=0 / decimate=1 / interlaced=0 / bluray_compat=0 / constrained_intra=0 / bframes=3 / b_pyramid=2 / b_adapt=2 / b_bias=0 / direct=3 / weightb=1 / open_gop=0 / weightp=2 / keyint=250 / keyint_min=23 / scenecut=40 / intra_refresh=0 / rc_lookahead=50 / rc=2pass / mbtree=1 / bitrate=8387 / ratetol=1.0 / qcomp=0.60 / qpmin=0 / qpmax=69 / qpstep=4 / cplxblur=20.0 / qblur=0.5 / ip_ratio=1.40 / aq=1:1.00
    Default                                  : Yes
    Forced                                   : No

    Audio
    ID                                       : 3
    Format                                   : AC-3
    Format/Info                              : Audio Coding 3
    Mode extension                           : CM (complete main)
    Codec ID                                 : A_AC3
    Duration                                 : 1h 25mn
    Bit rate mode                            : Constant
    Bit rate                                 : 448 Kbps
    Channel(s)                               : 6 channels
    Channel positions                        : Front: L C R, Side: L R, LFE
    Sampling rate                            : 48.0 KHz
    Bit depth                                : 16 bits
    Compression mode                         : Lossy
    Stream size                              : 274 MiB (5%)
    Default                                  : Yes
    Forced                                   : No

    Text
    ID                                       : 2
    Format                                   : UTF-8
    Codec ID                                 : S_TEXT/UTF8
    Codec ID/Info                            : UTF-8 Plain Text
    Title                                    : RUS Subtitles (Notabenoid)
    Language                                 : Russian
    Default                                  : No
    Forced                                   : No

    Menu
    00:00:00.000                             : :Chapter 01
    00:04:57.047                             : :Chapter 02
    00:10:20.995                             : :Chapter 03
    00:18:54.967                             : :Chapter 04
    00:28:47.976                             : :Chapter 05
    00:35:24.372                             : :Chapter 06
    00:42:14.949                             : :Chapter 07
    00:48:55.975                             : :Chapter 08
    00:59:02.914                             : :Chapter 09
    01:06:27.942                             : :Chapter 10
    01:13:59.894                             : :Chapter 11
    01:18:29.914                             : :Chapter 12

    Скриншоты:


    © Оформление by Ворон
    pb.wtf



  • Скачать Кристи через торрент http://pic.kartinco.top/images/6/ordi9.jpg Скачать фильм Кристи через торрент бесплантно в хорошем качестве Е:Оставшись в одиночестве в кампусе на время празднования Дня Благодарения, студентка вынуждена сражаться с бандой бродяг. Ей предстоит ... 10 10 1
    Торрент: Зарегистрирован [2015-02-18 13:27] · скачан: 52 раз
    Статус: T временная
    Размер: 5.27 GB
    Как cкачать? Как скачать Кристи через торрент | qTorrent

    % Раздел Тема Автор DL S | L
    Фильмы 2014 (Звук TS, Cam, VO, DVO) [ 1.44 GB ] Кристи / Kristy [2014 HDRip Любительский [den904 DeadSno] Ворон Скачать
    1 | 0
    Фильмы 2014 (Звук TS, Cam, VO, DVO) [ 1.19 GB ] Кристи / Случайные / Kristy / Random [2014 HDRip Любительский [Xixidok]+ENG GEKADOL Скачать
    1 | 0
    Домашнее порно [ 189 MB ] Кристину трахнули в туалете / Kristyna [2013 doggy handjob amateur pov SATRip] sheker187 Скачать
    1 | 0

    28-11-2019 20:33  

    Отключить всю рекламу на сайте

      Дорогой пользователь! Огромная просьба, поблагодарите релизера, оцените раздачу и оставьте свои комментарий, если Вы скачали Кристи через торрент бесплатно! Внесите свою лепту в развитие PiratBit!
      Комментировать посты могут только пользователи прошедшие не сложную регистрацию
      Показать сообщения:    

      Кристи через торрент
      Скачать бесплатно Кристи
      Кристи скачать торрент
      Кристи смотреть онлайн
      Cкачать фильм Кристи бесплатно
      Кристи скачать торрент в хорошем качестве
      Кристи смотреть онлайн бесплатно в хорошем качестве


      Вы не можете начинать темы
      Вы не можете отвечать на сообщения
      Вы не можете редактировать свои сообщения
      Вы не можете удалять свои сообщения
      Вы не можете голосовать в опросах
      Вы не можете прикреплять файлы к сообщениям
      Вы можете скачивать файлы