Ссылка на приватное зеркало всего за 1$. Внимание количество ограничено!!!

iTunes

iTunes

iTunes

1

iTunes

iTunes

iTunes

iTunes

iTunes

30
pack

Новость дня

ВАЖНО

!!Акция!!

Alien_RageХит недели

RePack

Resident Evil 21

ИГРА 18+

pack

RePack

jed

!!Акция!!

Alien_Rage

RePack

fifa19

RePack

Assassins Creed: Odyssey

RePack

NEED FOR SPEED™ PAYBACK

4 сезон

9 сезон

Бесстыжие 9 сезон

Все сериалы

все сериалы на PB.wtf

RePack

FAR CRY 5
  

Что творят мужчины! 2 (Сарик Андреасян ) [2015, комедия, WEB-DLRip, [Лицензия / iTunes] pb.wtf

Что творят мужчины! 2 через торрент pb.wtf

Размер: 1.37 GB | Добавлен: 5 лет 3 мес. назад | Торрент скачан:1708 раз
Скачать  

18-02-2015 13:35 Что творят мужчины! 2 Скачать торрент  

Что творят мужчины! 2
«Они вернутся в большой секс!»

Информация:
Год выпуска:2015
Страна: Россия
Жанр: комедия
Продолжительность: 01:25:05
Перевод: Не требуется
Режиссер: Сарик Андреасян

В ролях:


Таир Мамедов, Роман Юнусов, Дмитрий Кожома, Никита Джигурда, Настя Задорожная, Петр Винс, Вадим Цаллати, Наталья Рудова, Елена Борщева, Елена Беркова, Наталья Земцова, Татьяна Котова

Описание:
России угрожает страшная опасность! Бывший сисадмин Секретного Военного Подразделения, уехавший в Америку, запустил вирус для взлома системы безопасности, что грозит всем нам страшными последствиями. Чтобы остановить программу, нужен пароль - слово, которое произносит бывшая подружка хакера, когда испытывает оргазм. Это всего лишь одно слово, но за последний год у злодея было десяток подружек, и с каждой был секс... и все они в Лос-Анджелесе! Спасти страну призваны главные специалисты по женщинам - Даниэль, Гоша и Виталик.

  • Мировая премьера:1 января 2015


    Тех.Данные:
    Качество: WEB-DLRip
    Формат: AVI
    Видео кодек: XviD
    Аудио кодек: AC3
    Видео: XviD, 720x304 (2.35:1), 2090 kbps, 24 fps, 0,363 bpp
    Аудио: AC3 / 5.1 / 48 kHz / 384 kbps / 16 bit


    Код:

    General
    Complete name                            : D:\Торенты\Chto.Tv0r9t.Muzhch1ny.2.2015.O.WEB-DLRip.avi
    Format                                   : AVI
    Format/Info                              : Audio Video Interleave
    File size                                : 1.37 GiB
    Duration                                 : 1h 25mn
    Overall bit rate                         : 2 300 Kbps
    Writing application                      : VirtualDubMod 1.5.10.3 | www.virtualdub-fr.org || (build 2550/release)
    Writing library                          : VirtualDubMod build 2550/release

    Video
    ID                                       : 0
    Format                                   : MPEG-4 Visual
    Format profile                           : Advanced Simple@L5
    Format settings, BVOP                    : 2
    Format settings, QPel                    : No
    Format settings, GMC                     : No warppoints
    Format settings, Matrix                  : Default (MPEG)
    Codec ID                                 : XVID
    Codec ID/Hint                            : XviD
    Duration                                 : 1h 25mn
    Bit rate                                 : 2090 Kbps
    Width                                    : 720 pixels
    Height                                   : 304 pixels
    Display aspect ratio                     : 2.35:1
    Frame rate                               : 24.000 fps
    Color space                              : YUV
    Chroma subsampling                       : 4:2:0
    Bit depth                                : 8 bits
    Scan type                                : Progressive
    Compression mode                         : Lossy
    Bits/(Pixel*Frame)                       : 0.363
    Stream size                              : 1.13 GiB (83%)
    Writing library                          : XviD 1.2.1 (UTC 2008-12-04)

    Audio
    ID                                       : 1
    Format                                   : AC-3
    Format/Info                              : Audio Coding 3
    Mode extension                           : CM (complete main)
    Codec ID                                 : 2000
    Duration                                 : 1h 25mn
    Bit rate mode                            : Constant
    Bit rate                                 : 384 Kbps
    Channel(s)                               : 6 channels
    Channel positions                        : Front: L C R, Side: L R, LFE
    Sampling rate                            : 48.0 KHz
    Bit depth                                : 16 bits
    Compression mode                         : Lossy
    Stream size                              : 234 MiB (17%)
    Alignment                                : Split accross interleaves
    Interleave, duration                     : 42 ms (1.00 video frame)
    Interleave, preload duration             : 500 ms

    Скриншоты:


    © Оформление by Ворон
    pb.wtf



  • Скачать Что творят мужчины! 2 через торрент http://i63.fastpic.ru/big/2015/0218/73/ae2a8ef99a2667282849c8b0d63a1773.png Скачать фильм Что творят мужчины! 2 через торрент бесплантно в хорошем качестве Год выпуска:2015✦ Страна: Россия✦ Жанр: комедия ✦ Продолжительность: 01:25:05✦ Перевод: Не требуется✦ Режиссер: Сарик Андреасян В ролях: ... 7.6 10 31
    Торрент: Зарегистрирован [2015-02-18 13:35] · скачан: 1 708 раз
    Статус: √ проверено
    Размер: 1.37 GB
    Как cкачать? Как скачать Что творят мужчины! 2 через торрент | qTorrent

    % Раздел Тема Автор DL S | L
    T Наши фильмы (HD, WEB-DL 720p, 1080p) [ 2.63 GB ] Что творят мужчины! 2 [2015 WEB-DL 720p] Ворон Скачать
    1 | 0
    T Наши фильмы (HD, WEB-DL 720p, 1080p) [ 3.07 GB ] Что творят мужчины! 2 [2015 WEB-DL 1080p] Ворон Скачать
    1 | 0

    28-11-2019 20:33  

    Отключить всю рекламу на сайте

    19-02-2015 16:51 Что творят мужчины! 2 Скачать торрент  

    А Джигурда скорострел, за 26 секунд справился, лол. А вообще фильм редкостное говноpb.wtf



    28-02-2015 15:48 Что творят мужчины! 2 Скачать торрент  

    Stavro писал(а):

    А Джигурда скорострел, за 26 секунд справился, лол. А вообще фильм редкостное

    присоединяюсь фильм редкостное

    pb.wtf



    19-03-2015 18:07 Что творят мужчины! 2 Скачать торрент  

    не стремно им сниматься в этом дерьме, фильм даже для меня (редкостного старого быдла ) полное авно , тошнит от такого зрелищаpb.wtf



    14-04-2015 13:09 Что творят мужчины! 2 Скачать торрент  

    Спасти страну призваны главные специалисты по женщинам - Даниэль, Гоша и Виталик. Я фигею в этой ботве! У людей совесть испарилась в принципе - снимать такое УГ.pb.wtf



      Дорогой пользователь! Огромная просьба, поблагодарите релизера, оцените раздачу и оставьте свои комментарий, если Вы скачали Что творят мужчины! 2 через торрент бесплатно! Внесите свою лепту в развитие PiratBit!
      Комментировать посты могут только пользователи прошедшие не сложную регистрацию
      Показать сообщения:    

      Что творят мужчины! 2 через торрент
      Скачать бесплатно Что творят мужчины! 2
      Что творят мужчины! 2 скачать торрент
      Что творят мужчины! 2 смотреть онлайн
      Cкачать фильм Что творят мужчины! 2 бесплатно
      Что творят мужчины! 2 скачать торрент в хорошем качестве
      Что творят мужчины! 2 смотреть онлайн бесплатно в хорошем качестве


      Вы не можете начинать темы
      Вы не можете отвечать на сообщения
      Вы не можете редактировать свои сообщения
      Вы не можете удалять свои сообщения
      Вы не можете голосовать в опросах
      Вы не можете прикреплять файлы к сообщениям
      Вы можете скачивать файлы