Ссылка на приватное зеркало нашего сайта всего за 1$. Внимание количество ограничено!!!

2 сезон

iTunes

1 сезон

1

2 сезон

2 сезон

iTunes

1 сезон

RePack

30

Новинка

ВАЖНО

ИГРА 18+

pack

RePack

MK11
pack

Забери бонус

RePack

jed

!!Акция!!

Alien_Rage

RePack

fifa19

RePack

Assassins Creed: Odyssey

RePack

NEED FOR SPEED™ PAYBACK

4 сезон

9 сезон

Бесстыжие 9 сезон

Все сериалы

все сериалы на PB.wtf

RePack

FAR CRY 5
  

Что творят мужчины! 2 (Сарик Андреасян ) [2015, комедия, WEB-DL 1080p] [Лицензия / iTunes] pb.wtf

Что творят мужчины! 2 через торрент pb.wtf

Размер: 3.07 GB | Добавлен: 5 лет 9 мес. назад | Торрент скачан:620 раз
Скачать  

18-02-2015 13:38 Что творят мужчины! 2 Скачать торрент  

Что творят мужчины! 2
«Они вернутся в большой секс!»

ИНФОРМАЦИЯ:
Год выпуска: 2015
Страна: Россия
Жанр: комедия
Продолжительность: 01:25:05
Перевод: Не требуется
Режиссер: Сарик Андреасян

В Ролях:


Таир Мамедов, Роман Юнусов, Дмитрий Кожома, Никита Джигурда, Настя Задорожная, Петр Винс, Вадим Цаллати, Наталья Рудова, Елена Борщева, Елена Беркова, Наталья Земцова, Татьяна Котова

ОПИСАНИЕ:
России угрожает страшная опасность! Бывший сисадмин Секретного Военного Подразделения, уехавший в Америку, запустил вирус для взлома системы безопасности, что грозит всем нам страшными последствиями. Чтобы остановить программу, нужен пароль - слово, которое произносит бывшая подружка хакера, когда испытывает оргазм. Это всего лишь одно слово, но за последний год у злодея было десяток подружек, и с каждой был секс... и все они в Лос-Анджелесе! Спасти страну призваны главные специалисты по женщинам - Даниэль, Гоша и Виталик.

  • Мировая премьера:1 января 2015

    ТЕХ.ДАННЫЕ:
    Качество: WEB-DL 1080p
    Формат: MKV ✦ Видео кодек: AVC ✦ Аудио кодек: AC3
    Видео: 1912x812 (2.35:1)| 4683 kbps| 24 fps| 0,126 bpp
    Аудио: русский | 5.1 | 48 kHz | 384 kbps | 16 bit | ||
    Навигация по главам: есть


    Код:

    General
    Unique ID                                : 171804539331720760807487551971727499658 (0x814059C6B15B83CDA80C38128397E18A)
    Complete name                            : D:\Торенты\Chto.Tv0r9t.Muzhch1ny.2.2015.D.WEB-DL.1080p.mkv
    Format                                   : Matroska
    Format version                           : Version 4 / Version 2
    File size                                : 3.07 GiB
    Duration                                 : 1h 25mn
    Overall bit rate                         : 5 171 Kbps
    Encoded date                             : UTC 2015-02-18 12:02:17
    Writing application                      : mkvmerge v6.9.1 ('Blue Panther') 64bit built on Apr 18 2014 18:23:38
    Writing library                          : libebml v1.3.0 + libmatroska v1.4.1

    Video
    ID                                       : 1
    Format                                   : AVC
    Format/Info                              : Advanced Video Codec
    Format profile                           : High@L4.0
    Format settings, CABAC                   : Yes
    Format settings, ReFrames                : 5 frames
    Format settings, GOP                     : N=1
    Codec ID                                 : V_MPEG4/ISO/AVC
    Duration                                 : 1h 25mn
    Bit rate                                 : 4 684 Kbps
    Width                                    : 1 912 pixels
    Height                                   : 812 pixels
    Display aspect ratio                     : 2.35:1
    Frame rate                               : 24.000 fps
    Color space                              : YUV
    Chroma subsampling                       : 4:2:0
    Bit depth                                : 8 bits
    Scan type                                : Progressive
    Bits/(Pixel*Frame)                       : 0.126
    Stream size                              : 2.78 GiB (91%)
    Language                                 : English
    Default                                  : Yes
    Forced                                   : No
    Color primaries                          : BT.709-5, BT.1361, IEC 61966-2-4, SMPTE RP177
    Transfer characteristics                 : BT.709-5, BT.1361
    Matrix coefficients                      : BT.709-5, BT.1361, IEC 61966-2-4 709, SMPTE RP177

    Audio
    ID                                       : 2
    Format                                   : AC-3
    Format/Info                              : Audio Coding 3
    Mode extension                           : CM (complete main)
    Codec ID                                 : A_AC3
    Duration                                 : 1h 25mn
    Bit rate mode                            : Constant
    Bit rate                                 : 384 Kbps
    Channel(s)                               : 6 channels
    Channel positions                        : Front: L C R, Side: L R, LFE
    Sampling rate                            : 48.0 KHz
    Bit depth                                : 16 bits
    Compression mode                         : Lossy
    Stream size                              : 234 MiB (7%)
    Language                                 : Russian
    Default                                  : Yes
    Forced                                   : No

    Menu
    00:00:00.000                             : en:глава 1
    00:03:45.000                             : en:глава 2
    00:14:58.000                             : en:глава 3
    00:24:51.000                             : en:глава 4
    00:35:38.000                             : en:глава 5
    00:45:37.000                             : en:глава 6
    00:55:33.000                             : en:глава 7
    01:07:02.000                             : en:глава 8
    01:16:26.000                             : en:глава 9
    01:22:05.000                             : en:глава 10

    Скриншоты:


    © Оформление by Ворон
    pb.wtf



  • Скачать Что творят мужчины! 2 через торрент http://i63.fastpic.ru/big/2015/0218/73/ae2a8ef99a2667282849c8b0d63a1773.png Скачать фильм Что творят мужчины! 2 через торрент бесплантно в хорошем качестве Е:России угрожает страшная опасность! Бывший сисадмин Секретного Военного Подразделения, уехавший в Америку, запустил вирус для взлома ... 8.1 10 16
    Info! Золотая раздача, скачанное не засчитывается.
    Торрент: Зарегистрирован [2015-02-18 13:38] · скачан: 620 раз
    Статус: T временная
    Размер: 3.07 GB
    Как cкачать? Как скачать Что творят мужчины! 2 через торрент | qTorrent

    % Раздел Тема Автор DL S | L
    Наши новые фильмы 2015 [ 1.37 GB ] Что творят мужчины! 2 [2015 WEB-DLRip Ворон Скачать
    1 | 0
    T Наши фильмы (HD, WEB-DL 720p, 1080p) [ 2.63 GB ] Что творят мужчины! 2 [2015 WEB-DL 720p] Ворон Скачать
    1 | 0

    28-11-2019 20:33  

    Отключить всю рекламу на сайте

      Дорогой пользователь! Огромная просьба, поблагодарите релизера, оцените раздачу и оставьте свои комментарий, если Вы скачали Что творят мужчины! 2 через торрент бесплатно! Внесите свою лепту в развитие PiratBit!
      Комментировать посты могут только пользователи прошедшие не сложную регистрацию
      Показать сообщения:    

      Что творят мужчины! 2 через торрент
      Скачать бесплатно Что творят мужчины! 2
      Что творят мужчины! 2 скачать торрент
      Что творят мужчины! 2 смотреть онлайн
      Cкачать фильм Что творят мужчины! 2 бесплатно
      Что творят мужчины! 2 скачать торрент в хорошем качестве
      Что творят мужчины! 2 смотреть онлайн бесплатно в хорошем качестве


      Вы не можете начинать темы
      Вы не можете отвечать на сообщения
      Вы не можете редактировать свои сообщения
      Вы не можете удалять свои сообщения
      Вы не можете голосовать в опросах
      Вы не можете прикреплять файлы к сообщениям
      Вы можете скачивать файлы