Ссылка на приватное зеркало всего за 1$. Внимание количество ограничено!!!

iTunes

iTunes

iTunes

1

iTunes

iTunes

iTunes

iTunes

iTunes

30
pack

$ от Little Big

ВАЖНО

!!Акция!!

Alien_RageХит недели

RePack

Resident Evil 21

ИГРА 18+

pack

RePack

jed

!!Акция!!

Alien_Rage

RePack

fifa19

RePack

Assassins Creed: Odyssey

RePack

NEED FOR SPEED™ PAYBACK

4 сезон

9 сезон

Бесстыжие 9 сезон

Все сериалы

все сериалы на PB.wtf

RePack

FAR CRY 5
  

Призрак невесты / Ghost Bride (Дэвид Блит ) [2013, фэнтези, триллер, HDTVRip 1080p, Профессиональный (многоголосый) [SDI Media] pb.wtf

Призрак невесты через торрент pb.wtf

Размер: 2.91 GB | Добавлен: 5 лет 4 мес. назад | Торрент скачан:52 раза
Скачать  

18-02-2015 17:05 Призрак невесты Скачать торрент  


Призрак невесты / Ghost Bride


ИНФОРМАЦИЯ:
Год выпуска: 2013
Страна: Новая Зеландия
Жанр: фэнтези, триллер
Продолжительность: 01:19:53
Перевод: Профессиональный (многоголосый) [SDI Media]
Режиссер: Дэвид Блит

В Ролях:

Yoson An (Jason), Ребека Палмер (Skye), Фиона Фенг (May-Ling), Йен Мун (Frank), Гилинг Нг (Madam Yin), Catheryn Wu (Alice), Charles Chan (Mr. Yin)

ОПИСАНИЕ:
Молодой китайский иммигрант Джейсон Чен оказывается перед выбором между двумя девушками: новозеландкой Скай, в которую он действительно влюблен, и китаянкой Мэй Линг, на которой его хотят поженить родственники, уповая на традиции их семьи. Вскоре он узнает, что проблема не только в столкновении двух различных культур, но и в столкновении двух миров - мира живых и мира мертвых...

  • Мировая премьера:31 октября 2013

    ТЕХ.ДАННЫЕ:
    Качество: HDTVRip 1080p
    Формат: MPEG-4 ✦ Видео кодек: AVC ✦ Аудио кодек: AAC LC
    Видео: 1920x1080 (16:9)| 5017 kbps| 25 fps| 0,097 bpp
    Аудио: русский | 2.0 | 48 kHz | 192 kbps | ||

    Код:

    General
    Complete name                            : D:\Торенты\Ghost.Bride.2013.HDTVRip.(1080p).mp4
    Format                                   : MPEG-4
    Format profile                           : Base Media
    Codec ID                                 : isom
    File size                                : 2.91 GiB
    Duration                                 : 1h 19mn
    Overall bit rate                         : 5 214 Kbps
    Writing application                      : Lavf56.1.100

    Video
    ID                                       : 1
    Format                                   : AVC
    Format/Info                              : Advanced Video Codec
    Format profile                           : Baseline@L2.0
    Format settings, CABAC                   : No
    Format settings, ReFrames                : 1 frame
    Codec ID                                 : avc1
    Codec ID/Info                            : Advanced Video Coding
    Duration                                 : 1h 19mn
    Bit rate                                 : 5 018 Kbps
    Width                                    : 1 920 pixels
    Height                                   : 1 080 pixels
    Display aspect ratio                     : 16:9
    Frame rate mode                          : Constant
    Frame rate                               : 25.000 fps
    Color space                              : YUV
    Chroma subsampling                       : 4:2:0
    Bit depth                                : 8 bits
    Scan type                                : Progressive
    Bits/(Pixel*Frame)                       : 0.097
    Stream size                              : 2.80 GiB (96%)

    Audio
    ID                                       : 2
    Format                                   : AAC
    Format/Info                              : Advanced Audio Codec
    Format profile                           : LC
    Codec ID                                 : 40
    Duration                                 : 1h 19mn
    Bit rate mode                            : Constant
    Bit rate                                 : 192 Kbps
    Channel(s)                               : 2 channels
    Channel positions                        : Front: L R
    Sampling rate                            : 48.0 KHz
    Compression mode                         : Lossy
    Stream size                              : 110 MiB (4%)
    Language                                 : Russian

    Скриншоты:


    © Оформление by Ворон
    pb.wtf



  • Скачать Призрак невесты через торрент http://pic.kartinco.top/images/6/ordi9.jpg Скачать фильм Призрак невесты через торрент бесплантно в хорошем качестве Е:Молодой китайский иммигрант Джейсон Чен оказывается перед выбором между двумя девушками: новозеландкой Скай, в которую он действительно ... 10 10 5
    Торрент: Зарегистрирован [2015-02-18 17:05] · скачан: 52 раз
    Статус: √ проверено
    Размер: 2.91 GB
    Как cкачать? Как скачать Призрак невесты через торрент | qTorrent

    % Раздел Тема Автор DL S | L
    Фильмы (WEB-DL 720p, 1080p) [ 1.79 GB ] Призрак невесты / Ghost Bride [2013 HDTVRip 720p [SDI Media] Ворон Скачать
    1 | 1
    Фильмы 2013 [DVDrip, WEB-DLRip, HDrip] [ 930 MB ] Призрак невесты / Ghost Bride [2013 HDTVRip [SDI Media] Ворон Скачать
    1 | 0

    28-11-2019 20:33  

    Отключить всю рекламу на сайте

      Дорогой пользователь! Огромная просьба, поблагодарите релизера, оцените раздачу и оставьте свои комментарий, если Вы скачали Призрак невесты через торрент бесплатно! Внесите свою лепту в развитие PiratBit!
      Комментировать посты могут только пользователи прошедшие не сложную регистрацию
      Показать сообщения:    

      Призрак невесты через торрент
      Скачать бесплатно Призрак невесты
      Призрак невесты скачать торрент
      Призрак невесты смотреть онлайн
      Cкачать фильм Призрак невесты бесплатно
      Призрак невесты скачать торрент в хорошем качестве
      Призрак невесты смотреть онлайн бесплатно в хорошем качестве


      Вы не можете начинать темы
      Вы не можете отвечать на сообщения
      Вы не можете редактировать свои сообщения
      Вы не можете удалять свои сообщения
      Вы не можете голосовать в опросах
      Вы не можете прикреплять файлы к сообщениям
      Вы можете скачивать файлы