Ссылка на приватное зеркало всего за 1$. Внимание количество ограничено!!!

iTunes

1+1

iTunes

мы

WEB-DL

1

iTunes

Чернобыль

iTunes

Ральф против интернета

Лицензия

ПШазам

Лицензия

Оно 2

Лицензия

30
pack

Вам бонус

ВАЖНО

!!Акция!!

Alien_RageХит недели

RePack

Resident Evil 21

ИГРА 18+

pack

RePack

jed

!!Акция!!

Alien_Rage

RePack

fifa19

RePack

Assassins Creed: Odyssey

RePack

NEED FOR SPEED™ PAYBACK

3 сезон

9 сезон

Бесстыжие 9 сезон

Все сериалы

все сериалы на PB.wtf

RePack

FAR CRY 5
Ребята, катастрофически не хватает 1900р. для оплаты серверов за Октябрь (всвязи с блокировками трафик упал в 3 раза), 1-2р., выручайте.
  

Испытание (Александр Котт ) [2014, драма, WEB-DLRip-AVC от New-Team] pb.wtf

Испытание через торрент pb.wtf

Размер: 1.45 GB | Добавлен: 4 года 9 мес. назад | Торрент скачан:70 раз
Скачать  

19-02-2015 05:01 Испытание Скачать торрент  







Информация о фильме

Название: Испытание

Год выхода: 2014

Жанр: драма

Страна: Россия

Продолжительность: 01:32:03

Перевод: Не требуется |Лицензия|

Режиссер: Александр Котт

В ролях: Елена Ан, Данила Рассомахин, Карим Пакачаков, Нариман Бекбулатов-Арешев, Эдуард Галкин, Дмитрий Семенов, Юрий Пимкин, Игорь Ливенцов, Мирослав Тузин, Рустем Османов

Описание: Они живут в степи. Отец и дочь. Ничто не может нарушить вечный порядок. Завтра наступает всегда. И каждое утро отец уезжает работать. И она остается одна. Ждать отца. И чувствовать. Двое любят ее. Она любит каждого. Любовь нельзя поделить.

Однажды решение приходит само. Оттуда, где солнце.



Релиз от:

Автор рипа: Yarmak23


Файл

Качество видео: WEB-DLRip-AVC | исх. WEB-DL 1080p |

Формат:MKV
Видео кодек: AVC
Аудио кодек:AC3

Видео: 1024x438 (2.35:1), 25.000 fps, x264 ~1867 kbps avg, 0.167 bit/pixel

Аудио: 48 kHz, AC3 Dolby Digital, 3/2 (L,C,R,l,r) + LFE ch, 384.00 kbps Constant |Оригинал|

Семпл
Общее
Уникальный идентификатор : 243878020162737322877232367625244581476 (0xB77932BBFC40B159BF15EEE687D51E64)
Полное имя : D:\Торенты\Ispytanie.2014.O.WEB-DLRip-AVC.1.45GB_New-team_by_Yarmak23.mkv
Формат : Matroska
Версия формата : Version 2
Размер файла : 1,45 Гбайт
Продолжительность : 1 ч. 32 м.
Общий поток : 2252 Кбит/сек
Дата кодирования : UTC 2015-02-15 00:41:58
Программа кодирования : mkvmerge v6.1.0 ('Old Devil') built on Mar 4 2013 09:10:42
Библиотека кодирования : libebml v1.3.0 + libmatroska v1.4.0

Видео
Идентификатор : 1
Формат : AVC
Формат/Информация : Advanced Video Codec
Профиль формата : High@L4.1
Параметр CABAC формата : Да
Параметр ReFrames формата : 12 кадров
Идентификатор кодека : V_MPEG4/ISO/AVC
Продолжительность : 1 ч. 32 м.
Битрейт : 1867 Кбит/сек
Ширина : 1024 пикселя
Высота : 438 пикселей
Соотношение сторон : 2,35:1
Режим частоты кадров : Постоянный
Частота кадров : 25,000 кадров/сек
Цветовое пространство : YUV
Субдискретизация насыщенности : 4:2:0
Битовая глубина : 8 бит
Тип развёртки : Прогрессивная
Бит/(Пиксели*Кадры) : 0.167
Размер потока : 1,17 Гбайт (81%)
Библиотека кодирования : x264 core 138 r2356 a1d3d17
Настройки программы : cabac=1 / ref=12 / deblock=1:-3:-2 / analyse=0x3:0x113 / me=umh / subme=10 / psy=1 / psy_rd=1.00:0.05 / mixed_ref=1 / me_range=32 / chroma_me=1 / trellis=2 / 8x8dct=1 / cqm=0 / deadzone=21,11 / fast_pskip=1 / chroma_qp_offset=-3 / threads=3 / lookahead_threads=1 / sliced_threads=0 / nr=0 / decimate=0 / interlaced=0 / bluray_compat=0 / constrained_intra=0 / bframes=8 / b_pyramid=2 / b_adapt=2 / b_bias=0 / direct=3 / weightb=1 / open_gop=0 / weightp=2 / keyint=250 / keyint_min=25 / scenecut=40 / intra_refresh=0 / rc_lookahead=40 / rc=2pass / mbtree=1 / bitrate=1867 / ratetol=1.0 / qcomp=0.60 / qpmin=0 / qpmax=69 / qpstep=4 / cplxblur=20.0 / qblur=0.5 / ip_ratio=1.40 / aq=1:1.00
Default : Да
Forced : Нет

Аудио
Идентификатор : 2
Формат : AC-3
Формат/Информация : Audio Coding 3
Расширение режима : CM (complete main)
Параметр Endianness формата : Big
Идентификатор кодека : A_AC3
Продолжительность : 1 ч. 32 м.
Вид битрейта : Постоянный
Битрейт : 384 Кбит/сек
Каналы : 6 каналов
Расположение каналов : Front: L C R, Side: L R, LFE
Частота : 48,0 КГц
Битовая глубина : 16 бит
Метод сжатия : С потерями
Размер потока : 253 Мбайт (17%)
Default : Да
Forced : Нет
pb.wtf



Скачать Испытание через торрент http://img2.lostpic.net/orig_images/0/0/7/007cb000abbaa977ccedc2e74c1593aa.png Скачать фильм Испытание через торрент бесплантно в хорошем качестве Описание: Они живут в степи. Отец и дочь. Ничто не может нарушить вечный порядок. Завтра наступает всегда. И каждое утро отец уезжает ... 10 10 2
Торрент: Зарегистрирован [2015-02-19 05:01] · скачан: 70 раз
Статус: √ проверено
Размер: 1.45 GB
Как cкачать? Как скачать Испытание через торрент | qTorrent

% Раздел Тема Автор DL S | L
Фильмы 2018 [DVDrip, WEB-DLRip, HDrip] (DUB, MVO) [ 2.73 GB ] Испытание огнем / Trial by Fire [2018 биография WEB-DLRip-AVC] + MVO [HDRezka Studio] - OlLanDGroup Skandar2019 Скачать
3 | 0
Наши новые фильмы 2018-2019 [ 2.18 GB ] Последнее испытание [2019 WEB-DLRip] bober100 Скачать
16 | 1
Наши фильмы (HD, WEB-DL 720p, 1080p) [ 4.77 GB ] Последнее испытание [2019 WEB-DL 1080p] bober100 Скачать
4 | 0
Наши новые фильмы 2018-2019 [ 2.04 GB ] Последнее испытание [2019 WEB-DLRip-AVC] bober100 Скачать
6 | 0
Наши новые фильмы 2018-2019 [ 1.45 GB ] Последнее испытание [2019 WEB-DLRip] bober100 Скачать
12 | 0
Фильмы 2018 [DVDrip, WEB-DLRip, HDrip] (DUB, MVO) [ 1.45 GB ] Испытание огнем / Trial by Fire [2018 биография WEB-DLRip] MVO [HDRezka Studio] - ExKinoRay Enigma2010 Скачать
53 | 2
Фильмы (WEB-DL 720p, 1080p) [ 9.3 GB ] Испытание огнем / Trial by Fire [2018 биография WEB-DL 1080p] +MVO [HDRezka Studio] bober100 Скачать
3 | 0

28-11-2019 20:33  

Отключить всю рекламу на сайте

23-09-2015 10:05 Испытание Скачать торрент  

Гениальный фильм!!!Всем любителям авторского кино рекомендую! Очень красиво, глубоко и чисто!pb.wtf



    Дорогой пользователь! Огромная просьба, поблагодарите релизера, оцените раздачу и оставьте свои комментарий, если Вы скачали Испытание через торрент бесплатно! Внесите свою лепту в развитие PiratBit!
    Комментировать посты могут только пользователи прошедшие не сложную регистрацию
    Показать сообщения:    

    Испытание через торрент
    Скачать бесплатно Испытание
    Испытание скачать торрент
    Испытание смотреть онлайн
    Cкачать фильм Испытание бесплатно
    Испытание скачать торрент в хорошем качестве
    Испытание смотреть онлайн бесплатно в хорошем качестве


    Вы не можете начинать темы
    Вы не можете отвечать на сообщения
    Вы не можете редактировать свои сообщения
    Вы не можете удалять свои сообщения
    Вы не можете голосовать в опросах
    Вы не можете прикреплять файлы к сообщениям
    Вы можете скачивать файлы