Всегда рабочее зеркало без VPN и Proxy просто перед .vidak.icu напиши любое слово или цифру, Пример http://u5vt.vidak.icu

MVO

2 сезон

2 сезон

1

1 сезон

iTunes

2 сезон

13

1 сезон

Распродажа

pack

Рекомендуем

Пиратка

30

ВАЖНО

RePack

MK11

RePack

jed

RePack

fifa19

RePack

RDR2

RePack

NEED FOR SPEED™ PAYBACK

Кинопоиск HD

6 сезон

 Острые козырьки 6 сезон

Все сериалы

все сериалы на PB.wtf

RePack

FAR CRY 5

Anonymous, нам критически не хватает 5601 руб. на оплату серверов и переферии за Апрель, помоги нам пожалуйста, вся надежда только на тебя. В благодарность мы отключим тебе всю рекламу на сайте!

×
  
Magnet ссылка

Поцелуй Дракона / Kiss of the Dragon (Крис Наон / Chris Nahon) [2001 г., боевик, триллер, драма, криминал, BDRip 720p] DUB+MVO+AVO pb.wtf

Поцелуй Дракона через торрент pb.wtf

Размер: 4.35 GB | Добавлен: 7 лет 3 мес. назад | Торрент скачан:211 раз
Смотреть онлайн Поцелуй Дракона | Скачать    Ребята, помогите собрать деньги на оплату серверов!!!

19-02-2015 05:39 Поцелуй Дракона Скачать торрент  

Поцелуй Дракона / Kiss of the Dragon

Год выпуска: 2001
Страна: США, Франция
Жанр: боевик, триллер, драма, криминал
Продолжительность: 01:38:14
Перевод: Профессиональный (полное дублирование) + Профессиональный (многоголосый закадровый) + Авторский (одноголосый закадровый) - Гаврилов + Оригинальная аудиодорожка: английский
Субтитры: русские, английские

Режиссер: Крис Наон / Chris Nahon

В ролях: Джет Ли (Liu Jian), Бриджит Фонда (Jessica Kamen), Чеки Карио (Insp. Richard), Макс Райан (Lupo), Рик Янг (Mister Big), Берт Квук (Uncle Tai), Лоуренс Эшли (Aja), Сирил Раффаэлли (Twin), Дидье Азулай (Twin), Джон Форджэм (Max), Пол Баррет (Pilot), Кэнтаро Юри Йамашита (Chen)...

Описание: Офицер китайской разведки приезжает из Гонконга в Париж, чтобы участвовать в опасной операции, цель которой — заманить в ловушку и взять с поличным крупного наркобарона. Но дела идут совершенно непредсказуемо.
Герой попадает в двойную ловушку и становится подозреваемым в убийстве c неопровержимыми уликами против него. Его жизнь теперь зависит от того, сумеет ли он уйти от преследования и доказать свою невиновность.

Качество: BDRip (720p)
Формат: MKV
Видео кодек: H.264
Аудио кодек: AC3
Видео: 1280x542, h.264, ~4671 Kbps, 0.281 bit/pixel
Аудио#1: 48 KHz, AC3 5.1, ~448 кб/с |Dub|
Аудио#2: 48 KHz, AC3 5.0, ~384 кб/с |MVO|
Аудио#3: 48 KHz, AC3 5.1, ~384 кб/с |AVO|
Аудио#4: 48 KHz, AC3 5.1, ~448 кб/с |eng|
Format : Matroska
Format version : Version 2
File size : 4.35 GiB
Duration : 1h 38mn
Overall bit rate : 6 334 Kbps
Movie name : Поцелуй дракона [2001, BDRip/720p] || big1987
Encoded date : UTC 2012-03-22 09:21:01
Writing application : mkvmerge v5.0.1 ('Es ist Sommer') built on Nov 6 2011 16:23:40
Writing library : libebml v1.2.2 + libmatroska v1.3.0
Attachment : Yes

Video
ID : 1
Format : AVC
Format/Info : Advanced Video Codec
Format profile : High@L4.1
Format settings, CABAC : Yes
Format settings, ReFrames : 9 frames
Codec ID : V_MPEG4/ISO/AVC
Duration : 1h 38mn
Bit rate : 4 671 Kbps
Width : 1 280 pixels
Height : 542 pixels
Display aspect ratio : 2.35:1
Frame rate : 23.976 fps
Color space : YUV
Chroma subsampling : 4:2:0
Bit depth : 8 bits
Scan type : Progressive
Bits/(Pixel*Frame) : 0.281
Stream size : 3.12 GiB (72%)
Title : Поцелуй дракона [2001, BDRip/720p] || big1987
Writing library : x264 core 122 r2184 5c85e0a
Encoding settings : cabac=1 / ref=9 / deblock=1:-3:-3 / analyse=0x3:0x133 / me=umh / subme=10 / psy=1 / psy_rd=1.00:0.20 / mixed_ref=1 / me_range=48 / chroma_me=1 / trellis=2 / 8x8dct=1 / cqm=0 / deadzone=21,11 / fast_pskip=1 / chroma_qp_offset=-3 / threads=6 / sliced_threads=0 / nr=0 / decimate=1 / interlaced=0 / bluray_compat=0 / constrained_intra=0 / bframes=8 / b_pyramid=2 / b_adapt=2 / b_bias=0 / direct=3 / weightb=1 / open_gop=0 / weightp=2 / keyint=250 / keyint_min=23 / scenecut=40 / intra_refresh=0 / rc_lookahead=60 / rc=2pass / mbtree=1 / bitrate=4671 / ratetol=1.0 / qcomp=0.60 / qpmin=0 / qpmax=69 / qpstep=4 / cplxblur=20.0 / qblur=0.5 / ip_ratio=1.40 / aq=1:1.00
Language : English
Default : Yes
Forced : No

Audio #1
ID : 2
Format : AC-3
Format/Info : Audio Coding 3
Mode extension : CM (complete main)
Codec ID : A_AC3
Duration : 1h 38mn
Bit rate mode : Constant
Bit rate : 448 Kbps
Channel(s) : 6 channels
Channel positions : Front: L C R, Side: L R, LFE
Sampling rate : 48.0 KHz
Bit depth : 16 bits
Compression mode : Lossy
Stream size : 315 MiB (7%)
Title : Dub [AC3 5.1@448kbps]
Language : Russian
Default : Yes
Forced : No

Audio #2
ID : 3
Format : AC-3
Format/Info : Audio Coding 3
Mode extension : CM (complete main)
Codec ID : A_AC3
Duration : 1h 38mn
Bit rate mode : Constant
Bit rate : 384 Kbps
Channel(s) : 5 channels
Channel positions : Front: L C R, Side: L R
Sampling rate : 48.0 KHz
Bit depth : 16 bits
Compression mode : Lossy
Stream size : 270 MiB (6%)
Title : MVO [AC3 5.0@384kbps]
Language : Russian
Default : No
Forced : No

Audio #3
ID : 4
Format : AC-3
Format/Info : Audio Coding 3
Mode extension : CM (complete main)
Codec ID : A_AC3
Duration : 1h 38mn
Bit rate mode : Constant
Bit rate : 384 Kbps
Channel(s) : 6 channels
Channel positions : Front: L C R, Side: L R, LFE
Sampling rate : 48.0 KHz
Bit depth : 16 bits
Compression mode : Lossy
Stream size : 270 MiB (6%)
Title : AVO {Гаврилов} [AC3 5.1@384kbps]
Language : Russian
Default : No
Forced : No

Audio #4
ID : 5
Format : AC-3
Format/Info : Audio Coding 3
Mode extension : CM (complete main)
Codec ID : A_AC3
Duration : 1h 38mn
Bit rate mode : Constant
Bit rate : 448 Kbps
Channel(s) : 6 channels
Channel positions : Front: L C R, Side: L R, LFE
Sampling rate : 48.0 KHz
Bit depth : 16 bits
Compression mode : Lossy
Stream size : 315 MiB (7%)
Title : [AC3 5.1@448kbps]
Language : English
Default : No
Forced : No

Text #1
ID : 6
Format : UTF-8
Codec ID : S_TEXT/UTF8
Codec ID/Info : UTF-8 Plain Text
Title : Full
Language : Russian
Default : No
Forced : No

Text #2
ID : 7
Format : UTF-8
Codec ID : S_TEXT/UTF8
Codec ID/Info : UTF-8 Plain Text
Title : Full
Language : English
Default : No
Forced : No

Menu
00:00:00.000 : en:Main Titles
00:04:36.526 : en:Mr. Smith
00:10:40.139 : en:Welcome to Paris
00:16:29.280 : en:A Situation
00:24:24.213 : en:Double-Crossed
00:27:12.214 : en:Into the Fire
00:32:15.600 : en:Gare De L'est
00:43:13.716 : en:Our Best Man
00:51:36.176 : en:The Farmer's Daughter
00:57:37.829 : en:A Kind Person
01:04:30.283 : en:The Tour Boat Trip
01:07:26.209 : en:On the Run
01:11:27.492 : en:Help From Jessica
01:14:19.497 : en:A Tough Client
01:18:23.449 : en:The Witness
01:21:52.950 : en:Trust
01:28:46.905 : en:Jessica's Escape
01:31:51.715 : en:The Orphanage
01:33:22.972 : en:Liu Jian's Promise
pb.wtf



Скачать Поцелуй Дракона через торрент https://pic1.kartinco.top/images/2012/a9p3wms27v.png Скачать, смотреть онлайн Поцелуй Дракона бесплантно в хорошем качестве Описание: Офицер китайской разведки приезжает из а в Париж, чтобы участвовать в опасной операции, цель которой — заманить в ловушку ... 10 10 10
Торрент: Зарегистрирован [2015-02-19 05:39] · скачан: 211 раз
Статус: √ проверено
Размер: 4.35 GB
Как cкачать? Как скачать Поцелуй Дракона через торрент | UTorrent

% Раздел Тема Автор DL S | L
Фильмы [HD 720p, 1080p] (Хороший звук DUB, MVO) [ 10.26 GB ] Поцелуй дракона / Kiss of the Dragon [2001 BDRip 1080p] [DUB+MVO+3xAVO] Russian Mafia Скачать
1 | 0

28-11-2019 20:33  

Отключить всю рекламу на сайте

19-02-2015 17:04 Поцелуй Дракона Скачать торрент  

Классный фильм! Отличное кунг-фу!pb.wtf



    Дорогой пользователь! Огромная просьба, поблагодарите релизера, оцените раздачу и оставьте свои комментарий, если Вы скачали Поцелуй Дракона через торрент бесплатно!
    Комментировать посты могут только пользователи прошедшие не сложную регистрацию
    Показать сообщения:    

    Поцелуй Дракона через торрент
    Скачать бесплатно Поцелуй Дракона
    Поцелуй Дракона скачать торрент
    Поцелуй Дракона смотреть онлайн
    Cкачать фильм Поцелуй Дракона бесплатно
    Поцелуй Дракона скачать торрент в хорошем качестве
    Поцелуй Дракона смотреть онлайн бесплатно в хорошем качестве


    Вы не можете начинать темы
    Вы не можете отвечать на сообщения
    Вы не можете редактировать свои сообщения
    Вы не можете удалять свои сообщения
    Вы не можете голосовать в опросах
    Вы не можете прикреплять файлы к сообщениям
    Вы можете скачивать файлы