Ссылка на приватное зеркало нашего сайта всего за 1$. Внимание количество ограничено!!!

2 сезон

iTunes

1 сезон

1

iTunes

iTunes

iTunes

1 сезон

RePack

30

ИГРА 18+

pack

ВАЖНО

!!Акция!!

Alien_RageХит недели

RePack

MK11
pack

Забери бонус

RePack

jed

!!Акция!!

Alien_Rage

RePack

fifa19

RePack

Assassins Creed: Odyssey

RePack

NEED FOR SPEED™ PAYBACK

4 сезон

9 сезон

Бесстыжие 9 сезон

Все сериалы

все сериалы на PB.wtf

RePack

FAR CRY 5
  

Пойдём, выпьем со мной / Da zui xia (Кинг Ху) [1966, криминал, BDRip 720p] MVO pb.wtf

Пойдём, выпьем со мной через торрент pb.wtf

Размер: 4.16 GB | Добавлен: 5 лет 8 мес. назад | Торрент скачан:19 раз
Скачать  

19-02-2015 08:18 Пойдём, выпьем со мной Скачать торрент  

Пойдём, выпьем со мной / Da zui xia

Год выпуска: 1966
Страна: Гонконг
Жанр: криминал
Продолжительность: 01:34:49
Перевод: профессиональный многоголосый
Субтитры: английские

Режиссёр: Кинг Ху

В ролях: Ченг Пей, Юе Хуа, Чень Хунг, Ям Хо, Юнг Чи, Саймон Юэнь, Фенг Ку, Ли Вань, Кок Ли, Джеки Чан, Чеунг Хей, Чиу Хунг, Чоу Сиу, Алань Чиу, Гам Гвань, Хсю Хся, Марс, Нг Хо, Виолет Пань, Шум Ло, Тунг Чой

Описание: Банда головорезов похищает молодого высокопоставленного чиновника и держит его в заложниках, требуя у властей выдачу своего пленённого главаря. Золотую Ласточку посылают разделаться с бандитами и, заодно, освободить заложника, который приходится ей братом. Хотя она достойно выдерживает неравную борьбу, враг поражает её смазанным ядом дротиком. На помощь ей приходит нищий, который, на самом деле, оказывается переодетым мастером кунг-фу. Вместе с ним она разрабатывает план освобождения своего брата...



Качество: BDRip 720p
Формат: MKV
Видео кодек: H.264
Аудио кодек: AC3
Видео: 5765 Кбит/с, 1280x582, 23.976 кадра/с, 0.323 bpp
Аудио 1: русский, AC3, 192 kbps, 2 ch, 48 kHz [профессиональный многоголосый]
Аудио 2: китайский, AC3, 192 kbps, 2 ch, 48 kHz [оригинал]

Имеются неименованные главы/чаптеры.
Общее
Уникальный идентификатор : 246306401493137471838399055223177706107 (0xB94CE32D7F696C9D8E53797731FD7A7B)
Полное имя : D:VideoVypej so mnoj.1966.BDRip.720p.mkv
Формат : Matroska
Версия формата : Version 4 / Version 2
Размер файла : 4,16 Гбайт
Продолжительность : 1 ч. 34 м.
Общий поток : 6273 Кбит/сек
Дата кодирования : UTC 2015-02-19 05:26:18
Программа кодирования : mkvmerge v7.6.0 ('Garden of Dreams') 64bit built on Feb 8 2015 13:04:34
Библиотека кодирования : libebml v1.3.1 + libmatroska v1.4.2
DURATION : 01:32:09.398000000
NUMBER_OF_FRAMES : 486
NUMBER_OF_BYTES : 17010
_STATISTICS_WRITING_APP : mkvmerge v7.6.0 ('Garden of Dreams') 64bit built on Feb 8 2015 13:04:34
_STATISTICS_WRITING_DATE_UTC : 2015-02-19 05:26:18
_STATISTICS_TAGS : BPS DURATION NUMBER_OF_FRAMES NUMBER_OF_BYTES

Видео
Идентификатор : 1
Формат : AVC
Формат/Информация : Advanced Video Codec
Профиль формата : High@L4.1
Параметр CABAC формата : Да
Параметр ReFrames формата : 9 кадров
Идентификатор кодека : V_MPEG4/ISO/AVC
Продолжительность : 1 ч. 34 м.
Битрейт : 5765 Кбит/сек
Ширина : 1280 пикселей
Высота : 582 пикселя
Соотношение сторон : 2,2:1
Режим частоты кадров : Постоянный
Частота кадров : 23,976 кадра/сек
Цветовое пространство : YUV
Субдискретизация насыщенности : 4:2:0
Битовая глубина : 8 бит
Тип развёртки : Прогрессивная
Бит/(Пиксели*Кадры) : 0.323
Размер потока : 3,82 Гбайт (92%)
Библиотека кодирования : x264 core 142 r2431 ac76440
Настройки программы : cabac=1 / ref=9 / deblock=1:-1:-1 / analyse=0x3:0x113 / me=umh / subme=10 / psy=1 / psy_rd=1.00:0.15 / mixed_ref=1 / me_range=32 / chroma_me=1 / trellis=2 / 8x8dct=1 / cqm=0 / deadzone=21,11 / fast_pskip=1 / chroma_qp_offset=-3 / threads=6 / lookahead_threads=1 / sliced_threads=0 / nr=0 / decimate=1 / interlaced=0 / bluray_compat=0 / constrained_intra=0 / bframes=8 / b_pyramid=2 / b_adapt=2 / b_bias=0 / direct=3 / weightb=1 / open_gop=0 / weightp=2 / keyint=230 / keyint_min=23 / scenecut=40 / intra_refresh=0 / rc_lookahead=40 / rc=crf / mbtree=0 / crf=18.0 / qcomp=0.60 / qpmin=0 / qpmax=69 / qpstep=4 / vbv_maxrate=40000 / vbv_bufsize=50000 / crf_max=0.0 / nal_hrd=none / filler=0 / ip_ratio=1.40 / pb_ratio=1.30 / aq=1:1.00
Язык : Chinese
Default : Да
Forced : Нет
DURATION : 01:34:49.684000000
NUMBER_OF_FRAMES : 136416
NUMBER_OF_BYTES : 4187186695
_STATISTICS_WRITING_APP : mkvmerge v7.6.0 ('Garden of Dreams') 64bit built on Feb 8 2015 13:04:34
_STATISTICS_WRITING_DATE_UTC : 2015-02-19 05:26:18
_STATISTICS_TAGS : BPS DURATION NUMBER_OF_FRAMES NUMBER_OF_BYTES

Аудио #1
Идентификатор : 2
Формат : AC-3
Формат/Информация : Audio Coding 3
Расширение режима : CM (complete main)
Параметр Endianness формата : Big
Идентификатор кодека : A_AC3
Продолжительность : 1 ч. 34 м.
Вид битрейта : Постоянный
Битрейт : 192 Кбит/сек
Каналы : 2 канала
Расположение каналов : Front: L R
Частота : 48,0 КГц
Битовая глубина : 16 бит
Метод сжатия : С потерями
Размер потока : 130 Мбайт (3%)
Заголовок : MVO
Язык : Russian
Default : Да
Forced : Нет

Аудио #2
Идентификатор : 3
Формат : AC-3
Формат/Информация : Audio Coding 3
Расширение режима : CM (complete main)
Параметр Endianness формата : Big
Идентификатор кодека : A_AC3
Продолжительность : 1 ч. 34 м.
Вид битрейта : Постоянный
Битрейт : 192 Кбит/сек
Каналы : 2 канала
Расположение каналов : Front: L R
Частота : 48,0 КГц
Битовая глубина : 16 бит
Метод сжатия : С потерями
Размер потока : 130 Мбайт (3%)
Заголовок : Original
Язык : Chinese
Default : Нет
Forced : Нет

Текст
Идентификатор : 4
Формат : UTF-8
Идентификатор кодека : S_TEXT/UTF8
Идентификатор кодека/Информация : UTF-8 Plain Text
Заголовок : английский
Язык : English
Default : Нет
Forced : Нет

Меню
00:00:00.000 : :Chapter 01
00:08:02.815 : :Chapter 02
00:15:59.708 : :Chapter 03
00:23:47.092 : :Chapter 04
00:29:44.199 : :Chapter 05
00:39:01.422 : :Chapter 06
00:46:35.417 : :Chapter 07
00:55:45.717 : :Chapter 08
01:03:26.594 : :Chapter 09
01:15:19.431 : :Chapter 10
01:21:20.584 : :Chapter 11
01:29:45.838 : :Chapter 12
01:34:24.784 : :Chapter 13
01:34:47.682 : :Chapter 14
01:34:49.684 : :Chapter 15
pb.wtf



Скачать Пойдём, выпьем со мной через торрент http://i64.fastpic.ru/big/2015/0219/ba/2ae9a8e8003122cca0c54646fc15c7ba.jpg Скачать фильм Пойдём, выпьем со мной через торрент бесплантно в хорошем качестве Описание: Банда головорезов похищает молодого высокопоставленного чиновника и держит его в заложниках, требуя у властей выдачу своего ... 5 10 1
Торрент: Зарегистрирован [2015-02-19 08:18] · скачан: 19 раз
Статус: √ проверено
Размер: 4.16 GB
Как cкачать? Как скачать Пойдём, выпьем со мной через торрент | qTorrent

% Раздел Тема Автор DL S | L
Фильмы [HD 720p, 1080p] (Хороший звук DUB, MVO) [ 9.65 GB ] Пойдём выпьем со мной / Da zui xia [1966 BDRip 1080p] MVO msltel Скачать
1 | 0

28-11-2019 20:33  

Отключить всю рекламу на сайте

    Дорогой пользователь! Огромная просьба, поблагодарите релизера, оцените раздачу и оставьте свои комментарий, если Вы скачали Пойдём, выпьем со мной через торрент бесплатно! Внесите свою лепту в развитие PiratBit!
    Комментировать посты могут только пользователи прошедшие не сложную регистрацию
    Показать сообщения:    

    Пойдём, выпьем со мной через торрент
    Скачать бесплатно Пойдём, выпьем со мной
    Пойдём, выпьем со мной скачать торрент
    Пойдём, выпьем со мной смотреть онлайн
    Cкачать фильм Пойдём, выпьем со мной бесплатно
    Пойдём, выпьем со мной скачать торрент в хорошем качестве
    Пойдём, выпьем со мной смотреть онлайн бесплатно в хорошем качестве


    Вы не можете начинать темы
    Вы не можете отвечать на сообщения
    Вы не можете редактировать свои сообщения
    Вы не можете удалять свои сообщения
    Вы не можете голосовать в опросах
    Вы не можете прикреплять файлы к сообщениям
    Вы можете скачивать файлы