2 сезон

iTunes

1 сезон

1

iTunes

iTunes

iTunes

1 сезон

RePack

30

ИГРА 18+

pack

ВАЖНО

!!Акция!!

Alien_RageХит недели

RePack

MK11
pack

Забери бонус

RePack

jed

!!Акция!!

Alien_Rage

RePack

fifa19

RePack

Assassins Creed: Odyssey

RePack

NEED FOR SPEED™ PAYBACK

4 сезон

9 сезон

Бесстыжие 9 сезон

Все сериалы

все сериалы на PB.wtf

RePack

FAR CRY 5
  

Граница времени (Филипп Коршунов) [Сезон: 1/1-7 из 20] [2015 г., Детектив, драма, научная фантастика, приключения, WEB-Rip 720p] pb.wtf

Граница времени через торрент pb.wtf

Размер: 7.37 GB | Добавлен: 5 лет 8 мес. назад | Торрент скачан:33 раза
Скачать  

19-02-2015 08:46 Граница времени Скачать торрент  

Граница времени
Год выпуска: 2015
Страна: Россия
Жанр: Детектив, драма, научная фантастика, приключения
Продолжительность: ~ 00:48:00

Режиссер: Филипп Коршунов

В ролях: Екатерина Маликова, Александр Кульков, Александра Булычёва, Павел Савчук, Борис Репетур, Матвей Матвеев, Леонид Ворон, Алексей Красноцветов, Александр Лепихов, Дмитрий НовиковЕкатерина Кульчицкая

Описание: Никому не известный американский ученый Кристоф Штерн создал пресловутую машину времени. Она оказалась не сложным и громоздким аппаратом, а современной программой, которая устанавливается на любые гаджеты. Несмотря на запреты спецслужб, движимый честолюбием ученый Штерн выкладывает свою программу «машины времени» в интернет. Буквально через пару часов ссылку удаляют. Но ее уже скачали десятки миллионов людей! Теперь она есть у каждого жителя Земли, и это грозит настоящей катастрофой! Чтобы спасти планету от хаоса, по всему мира была создана специальная секретная служба контроля за неприкосновенностью временного пространства – «Граница времени». В том числе и в России. В спецподразделение отобраны лучшие оперативники и аналитики страны. Любые нарушения отслеживаются и жестоко караются. Все операции строго засекречены. Для того чтобы найти преступника, опергруппе придется отправиться вслед за ним. И все не так просто: вызвать к себе подозрения в прошлом – смертельно опасно.

Качество: WEB-Rip 720p
Формат: MPEG-4
Видео кодек: AVC
Аудио кодек: AC3
Видео: 1280x720 (16:9), 25.000 fps, 2 963 Kbps (0.129 bit/pixel)
Аудио#1: 44.1 KHz, 2 ch, 128 Kbps, CBR (Russian)
добавлена 7-я серия
General
Complete name : G:\Русс сер\Граница времени\Граница.времени.2015.WEBRip.(720p)\Граница.времени.E01.WEBRip.mp4
Format : MPEG-4
Format profile : Base Media
Codec ID : isom
File size : 1.04 GiB
Duration : 48mn 7s
Overall bit rate : 3 096 Kbps
Track name/Position : 1
Recorded date : 2015
Writing application : Lavf56.1.100
Comment : www.dvdvideosoft.com

Video
ID : 1
Format : AVC
Format/Info : Advanced Video Codec
Format profile : Baseline@L2.0
Format settings, CABAC : No
Format settings, ReFrames : 1 frame
Codec ID : avc1
Codec ID/Info : Advanced Video Coding
Duration : 48mn 7s
Bit rate : 2 963 Kbps
Width : 1 280 pixels
Height : 720 pixels
Display aspect ratio : 16:9
Frame rate mode : Variable
Frame rate : 25.000 fps
Minimum frame rate : 22.695 fps
Maximum frame rate : 25.000 fps
Color space : YUV
Chroma subsampling : 4:2:0
Bit depth : 8 bits
Scan type : Progressive
Bits/(Pixel*Frame) : 0.129
Stream size : 1 020 MiB (96%)

Audio
ID : 2
Format : AAC
Format/Info : Advanced Audio Codec
Format profile : LC
Codec ID : 40
Duration : 48mn 7s
Bit rate mode : Constant
Bit rate : 128 Kbps
Channel(s) : 2 channels
Channel positions : Front: L R
Sampling rate : 44.1 KHz
Compression mode : Lossy
Stream size : 44.1 MiB (4%)
Language : Russian

Внимание! Раздача ведётся путём добавления новых выпусков; при каждом добавлении создаётся новый торрент. Чтобы начать докачку нового выпуска, пользователям необходимо сделать следующее:
(1) остановить скачивание,
(2) удалить старый торрент у себя из клиента (старые серии удалять не надо),
(3) скачать новый торрент и запустить его у себя в клиенте вместо старого, при этом указать клиенту путь в старую папку куда и должно происходить скачивание новых выпусков.
Ваш клиент при этом должен произвести хеширование (проверку) старой папки (если не производит сам - помогите ему сделать это). В результате он будет докачивать только те выпуски, которых у Вас ещё нет. Старые выпуски при этом не удаляются, а продолжают раздаваться!
Eсли Вы уже удалили старые выпуски, то предотвратить их повторную закачку можно, сняв галочки в соответствующих местах при запуске нового торрента. По возможности, желательно не удалять старые выпуски как можно дольше, чтобы релизёр не только продолжал раздавать старые выпуски, но и смог сконцентрироваться на новых.
pb.wtf



Скачать Граница времени через торрент http://pic1.kartinco.top/images/9/jewsf.jpg Скачать фильм Граница времени через торрент бесплантно в хорошем качестве Описание: Никому не известный американский ученый Кристоф Штерн создал пресловутую машину времени. Она оказалась не сложным и громоздким ... 10 10 5
Торрент: Зарегистрирован [2015-02-26 14:29] · скачан: 33 раз
Статус: √ проверено
Размер: 7.37 GB
Как cкачать? Как скачать Граница времени через торрент | qTorrent

% Раздел Тема Автор DL S | L
Наши сериалы [ 14.15 GB ] Граница времени / Сезон: 1 / Серии 1-23 из ?? [2015 Россия SATRip) GEKADOL Скачать
1 | 0
Наши сериалы [ 7.1 GB ] Граница времени [Сезон: 1/1-12 из 20] [2015 научная WEB-DLRip] Assasinca Скачать
1 | 0


Последний раз редактировалось: Assasinca (2015-02-26 14:29), всего редактировалось 2 раз(а)

28-11-2019 20:33  

Отключить всю рекламу на сайте

25-02-2015 08:51 Граница времени Скачать торрент  

народ отпишитесь! Стоит смотреть?pb.wtf



25-02-2015 11:27 Граница времени Скачать торрент  

Говнище ещё то.pb.wtf



    Дорогой пользователь! Огромная просьба, поблагодарите релизера, оцените раздачу и оставьте свои комментарий, если Вы скачали Граница времени через торрент бесплатно! Внесите свою лепту в развитие PiratBit!
    Комментировать посты могут только пользователи прошедшие не сложную регистрацию
    Показать сообщения:    

    Граница времени через торрент
    Скачать бесплатно Граница времени
    Граница времени скачать торрент
    Граница времени смотреть онлайн
    Cкачать фильм Граница времени бесплатно
    Граница времени скачать торрент в хорошем качестве
    Граница времени смотреть онлайн бесплатно в хорошем качестве


    Вы не можете начинать темы
    Вы не можете отвечать на сообщения
    Вы не можете редактировать свои сообщения
    Вы не можете удалять свои сообщения
    Вы не можете голосовать в опросах
    Вы не можете прикреплять файлы к сообщениям
    Вы можете скачивать файлы