Ссылка на приватное зеркало нашего сайта всего за 1$. Внимание количество ограничено!!!

2 сезон

iTunes

1 сезон

1

2 сезон

2 сезон

iTunes

1 сезон

RePack

30

Новинка

ВАЖНО

ИГРА 18+

pack

RePack

MK11
pack

Забери бонус

RePack

jed

!!Акция!!

Alien_Rage

RePack

fifa19

RePack

Assassins Creed: Odyssey

RePack

NEED FOR SPEED™ PAYBACK

4 сезон

9 сезон

Бесстыжие 9 сезон

Все сериалы

все сериалы на PB.wtf

RePack

FAR CRY 5
  

Убийство первой степени / Murder in the First / Сезон: 1 / Серии: 1-10 из 10 (Джесси Бокко, Бен Болт, Майкл Мэйерс) [2014, Драма, детектив, триллер, WEB-DLRip] DVO (HamsterStudio) + Original pb.wtf

Убийство первой степени через торрент pb.wtf

Размер: 4.4 GB | Добавлен: 5 лет 9 мес. назад | Торрент скачан:60 раз
Скачать  

19-02-2015 09:09 Убийство первой степени Скачать торрент  


Убийство первой степени / Murder in the First
Год выпуска: 2014
Страна: США
Жанр: Драма, детектив
Продолжительность: ~ 00:42:00
Перевод: Любительский двухголосый(HamsterStudio)

Режиссер: Джесси Бокко, Бен Болт, Майкл Мэйерс



В ролях: Том Фелтон, Йен Энтони Дэйл, Карри Грэм, Кэтлин Робертсон, Тэй Диггз, Мими Кирклэнд, Джейми МакШейн, Марисса Армихо, Брианна Дэвис, Камилль Бальзамо, Питер Онорати и др.

Описание: В центре сюжета сериала, действие которого разворачивается в Сан-Франциско, находятся детективы Терри Сигрейв и Хилди Маллиган, которые расследуют обычное убийство наркомана, однако в ходе развития дела выходят на генерального директора компании по разработке передовых технологий Эрика Бланта.

Качество: WEB-DLRip
Формат: AVI
Видео кодек: XviD
Аудио кодек: AC3
Видео: 720x400 (16:9), 23.976 fps, 1 396 Kbps (0.202 bit/pixel)
Аудио#1: 48.0 KHz, 2 ch, 128 Kbps, CBR Русский
Аудио#2: 48.0 KHz, 2 ch, 128 Kbps, CBR Английский
Релиз от:
Озвучка: Андрей Жариков и Анастасия Снегирёва
Работа с видео, монтаж и сведение звука: Kiberline, Роман Мырон
General
Complete name : G:\Сериалы\Убийство первой степени\Murder.in.the.First.s01.WEB-DLRip.HamsterStudio\Murder.in.the.First.s01e01.WEB-DLRip.HamsterStudio.Org.avi
Format : AVI
Format/Info : Audio Video Interleave
File size : 501 MiB
Duration : 42mn 0s
Overall bit rate : 1 666 Kbps
Writing application : VirtualDubModRus 1.5.10.2 (build 2540/release)
Writing library : VirtualDubMod build 2540/release

Video
ID : 0
Format : MPEG-4 Visual
Format profile : Advanced Simple@L5
Format settings, BVOP : 1
Format settings, QPel : No
Format settings, GMC : No warppoints
Format settings, Matrix : Default (H.263)
Codec ID : XVID
Codec ID/Hint : XviD
Duration : 42mn 0s
Bit rate : 1 396 Kbps
Width : 720 pixels
Height : 400 pixels
Display aspect ratio : 16:9
Frame rate : 23.976 fps
Color space : YUV
Chroma subsampling : 4:2:0
Bit depth : 8 bits
Scan type : Progressive
Compression mode : Lossy
Bits/(Pixel*Frame) : 0.202
Stream size : 420 MiB (84%)
Writing library : XviD 1.2.1 (UTC 2008-12-04)

Audio #1
ID : 1
Format : MPEG Audio
Format version : Version 1
Format profile : Layer 3
Mode : Joint stereo
Mode extension : MS Stereo
Codec ID : 55
Codec ID/Hint : MP3
Duration : 42mn 0s
Bit rate mode : Constant
Bit rate : 128 Kbps
Channel(s) : 2 channels
Sampling rate : 48.0 KHz
Compression mode : Lossy
Stream size : 38.5 MiB (8%)
Alignment : Aligned on interleaves
Interleave, duration : 42 ms (1.00 video frame)
Interleave, preload duratio : 504 ms

Audio #2
ID : 2
Format : MPEG Audio
Format version : Version 1
Format profile : Layer 3
Codec ID : 55
Codec ID/Hint : MP3
Duration : 42mn 0s
Bit rate mode : Constant
Bit rate : 128 Kbps
Channel(s) : 2 channels
Sampling rate : 48.0 KHz
Compression mode : Lossy
Stream size : 38.5 MiB (8%)
Alignment : Aligned on interleaves
Interleave, duration : 42 ms (1.00 video frame)
Interleave, preload duratio : 504 ms
Writing library : LAME3.99r
Encoding settings : -m s -V 4 -q 2 -lowpass 17 -b 128

pb.wtf



Скачать Убийство первой степени через торрент http://pic1.kartinco.top/images/9/dgs4x.jpg Скачать фильм Убийство первой степени через торрент бесплантно в хорошем качестве Описание: В центре сюжета сериала, действие которого разворачивается в Сан-Франциско, находятся детективы Терри Сигрейв и Хилди Маллиган, ... 10 10 2
Торрент: Зарегистрирован [2015-02-19 09:09] · скачан: 60 раз
Статус: √ проверено
Размер: 4.4 GB
Как cкачать? Как скачать Убийство первой степени через торрент | qTorrent

% Раздел Тема Автор DL S | L
Зарубежные сериалы [ 14.23 GB ] Убийство первой степени / Murder in the First / Сезон: 1 / Серии: 1-10 из 10 [2014 WEBDL 720p] DVO + Original Assasinca Скачать
1 | 0

28-11-2019 20:33  

Отключить всю рекламу на сайте

    Дорогой пользователь! Огромная просьба, поблагодарите релизера, оцените раздачу и оставьте свои комментарий, если Вы скачали Убийство первой степени через торрент бесплатно! Внесите свою лепту в развитие PiratBit!
    Комментировать посты могут только пользователи прошедшие не сложную регистрацию
    Показать сообщения:    

    Убийство первой степени через торрент
    Скачать бесплатно Убийство первой степени
    Убийство первой степени скачать торрент
    Убийство первой степени смотреть онлайн
    Cкачать фильм Убийство первой степени бесплатно
    Убийство первой степени скачать торрент в хорошем качестве
    Убийство первой степени смотреть онлайн бесплатно в хорошем качестве


    Вы не можете начинать темы
    Вы не можете отвечать на сообщения
    Вы не можете редактировать свои сообщения
    Вы не можете удалять свои сообщения
    Вы не можете голосовать в опросах
    Вы не можете прикреплять файлы к сообщениям
    Вы можете скачивать файлы