Ссылка на приватное зеркало нашего сайта всего за 1$. Внимание количество ограничено!!!

2 сезон

iTunes

1 сезон

1

2 сезон

2 сезон

iTunes

1 сезон

RePack

30

Ultimate

ВАЖНО

ИГРА 18+

pack

RePack

MK11
pack

Забери бонус

RePack

jed

!!Акция!!

Alien_Rage

RePack

fifa19

RePack

Assassins Creed: Odyssey

RePack

NEED FOR SPEED™ PAYBACK

4 сезон

9 сезон

Бесстыжие 9 сезон

Все сериалы

все сериалы на PB.wtf

RePack

FAR CRY 5
  

Убийство первой степени / Murder in the First / Сезон: 1 / Серии: 1-10 из 10 (Джесси Бокко, Бен Болт, Майкл Мэйерс) [2014, Драма, детектив, триллер, WEBDL 720p] DVO (HamsterStudio) + Original pb.wtf

Убийство первой степени через торрент pb.wtf

Размер: 14.23 GB | Добавлен: 5 лет 9 мес. назад | Торрент скачан:63 раза
Скачать  

19-02-2015 10:08 Убийство первой степени Скачать торрент  


Убийство первой степени / Murder in the First
Год выпуска: 2014
Страна: США
Жанр: Драма, детектив
Продолжительность: ~ 00:42:00
Перевод: Любительский двухголосый(HamsterStudio)

Режиссер: Джесси Бокко, Бен Болт, Майкл Мэйерс



В ролях: Том Фелтон, Йен Энтони Дэйл, Карри Грэм, Кэтлин Робертсон, Тэй Диггз, Мими Кирклэнд, Джейми МакШейн, Марисса Армихо, Брианна Дэвис, Камилль Бальзамо, Питер Онорати и др.

Описание: В центре сюжета сериала, действие которого разворачивается в Сан-Франциско, находятся детективы Терри Сигрейв и Хилди Маллиган, которые расследуют обычное убийство наркомана, однако в ходе развития дела выходят на генерального директора компании по разработке передовых технологий Эрика Бланта.

Качество: WEBDL 720p
Формат: MKV
Видео кодек: AVC
Аудио кодек: AC3
Видео: 1280x720 (16:9), 23.976 fps, 3 855 Kbps (0.174 bit/pixel)
Аудио#1: 48.0 KHz, 6 ch, 384 Kbps, CBR (Russian)
Аудио#2: 48.0 KHz, 6 ch, 384 Kbps, CBR (English)
Релиз от:
Озвучка: Андрей Жариков и Анастасия Снегирёва
Работа с видео, монтаж и сведение звука: Kiberline, Роман Мырон
General
Unique ID : 220861762295483741307307172327416077018 (0xA6286D9BBADF6ECEA94ADAF471831ADA)
Complete name : G:\Сериалы\Убийство первой степени\Murder.in.the.First.s01.720p.WEB-DL.HamsterStudio\Murder.in.the.First.s01e01.720p.WEB-DL.HamsterStudio.Org.mkv
Format : Matroska
Format version : Version 4 / Version 2
File size : 1.38 GiB
Duration : 42mn 1s
Overall bit rate : 4 717 Kbps
Encoded date : UTC 2014-06-12 18:02:15
Writing application : mkvmerge v6.6.0 ('The Edge Of The In Between') built on Dec 1 2013 17:55:00
Writing library : libebml v1.3.0 + libmatroska v1.4.1

Video
ID : 1
Format : AVC
Format/Info : Advanced Video Codec
Format profile : High@L3.1
Format settings, CABAC : No
Format settings, ReFrames : 2 frames
Codec ID : V_MPEG4/ISO/AVC
Duration : 42mn 1s
Bit rate : 3 855 Kbps
Width : 1 280 pixels
Height : 720 pixels
Display aspect ratio : 16:9
Frame rate mode : Constant
Frame rate : 23.976 fps
Color space : YUV
Chroma subsampling : 4:2:0
Bit depth : 8 bits
Scan type : Progressive
Bits/(Pixel*Frame) : 0.174
Stream size : 1.13 GiB (82%)
Language : English
Default : Yes
Forced : No
Color primaries : BT.709
Transfer characteristics : BT.709
Matrix coefficients : BT.709
Color range : Limited

Audio #1
ID : 2
Format : AC-3
Format/Info : Audio Coding 3
Mode extension : CM (complete main)
Format settings, Endianness : Big
Codec ID : A_AC3
Duration : 42mn 1s
Bit rate mode : Constant
Bit rate : 384 Kbps
Channel(s) : 6 channels
Channel positions : Front: L C R, Side: L R, LFE
Sampling rate : 48.0 KHz
Bit depth : 16 bits
Compression mode : Lossy
Stream size : 115 MiB (8%)
Language : Russian
Default : Yes
Forced : Yes

Audio #2
ID : 3
Format : AC-3
Format/Info : Audio Coding 3
Mode extension : CM (complete main)
Format settings, Endianness : Big
Codec ID : A_AC3
Duration : 42mn 1s
Bit rate mode : Constant
Bit rate : 384 Kbps
Channel(s) : 6 channels
Channel positions : Front: L C R, Side: L R, LFE
Sampling rate : 48.0 KHz
Bit depth : 16 bits
Compression mode : Lossy
Stream size : 115 MiB (8%)
Language : English
Default : No
Forced : No

pb.wtf



Скачать Убийство первой степени через торрент http://pic1.kartinco.top/images/9/dgs4x.jpg Скачать фильм Убийство первой степени через торрент бесплантно в хорошем качестве Описание: В центре сюжета сериала, действие которого разворачивается в Сан-Франциско, находятся детективы Терри Сигрейв и Хилди Маллиган, ... 10 10 3
Торрент: Зарегистрирован [2015-02-19 10:08] · скачан: 63 раз
Статус: √ проверено
Размер: 14.23 GB
Как cкачать? Как скачать Убийство первой степени через торрент | qTorrent

% Раздел Тема Автор DL S | L
Зарубежные сериалы [ 4.4 GB ] Убийство первой степени / Murder in the First / Сезон: 1 / Серии: 1-10 из 10 [2014 WEB-DLRip] DVO + Original Assasinca Скачать
1 | 0

28-11-2019 20:33  

Отключить всю рекламу на сайте

    Дорогой пользователь! Огромная просьба, поблагодарите релизера, оцените раздачу и оставьте свои комментарий, если Вы скачали Убийство первой степени через торрент бесплатно! Внесите свою лепту в развитие PiratBit!
    Комментировать посты могут только пользователи прошедшие не сложную регистрацию
    Показать сообщения:    

    Убийство первой степени через торрент
    Скачать бесплатно Убийство первой степени
    Убийство первой степени скачать торрент
    Убийство первой степени смотреть онлайн
    Cкачать фильм Убийство первой степени бесплатно
    Убийство первой степени скачать торрент в хорошем качестве
    Убийство первой степени смотреть онлайн бесплатно в хорошем качестве


    Вы не можете начинать темы
    Вы не можете отвечать на сообщения
    Вы не можете редактировать свои сообщения
    Вы не можете удалять свои сообщения
    Вы не можете голосовать в опросах
    Вы не можете прикреплять файлы к сообщениям
    Вы можете скачивать файлы