Ссылка на приватное зеркало нашего сайта всего за 1$. Внимание количество ограничено!!!

2 сезон

iTunes

1 сезон

1

2 сезон

2 сезон

iTunes

1 сезон

RePack

30

Новинка

ВАЖНО

ИГРА 18+

pack

RePack

MK11
pack

Забери бонус

RePack

jed

!!Акция!!

Alien_Rage

RePack

fifa19

RePack

Assassins Creed: Odyssey

RePack

NEED FOR SPEED™ PAYBACK

4 сезон

9 сезон

Бесстыжие 9 сезон

Все сериалы

все сериалы на PB.wtf

RePack

FAR CRY 5
  

Надломленные души / Cracked / Сезон: 1 / Серии: 1-13 из 13 (Дон МакБрити, Брюс МакДональд, Джим Донован) [2013, Драма, криминал, детектив, WEB-DLRip] MVO (FOX) pb.wtf

Надломленные души через торрент pb.wtf

Размер: 5.48 GB | Добавлен: 5 лет 9 мес. назад | Торрент скачан:92 раза
Скачать  

20-02-2015 09:09 Надломленные души Скачать торрент  


Надломленные души / Cracked
Год выпуска: 2013
Страна: Канада
Жанр: Драма, криминал, детектив
Продолжительность: ~ 00:43:00
Перевод: Профессиональный многоголосый(FOX)

Режиссер: Дон МакБрити, Брюс МакДональд, Джим Донован



В ролях: Стефани Фон Пфеттен, Дэвид Сатклифф, Стив Бачич, Луиза Д’Оливера, Джейсон Спивак, Дайо Эд, Карен ЛеБлан, Пол Попович, Джоэнн Боланд, Джейдин Вонг

Описание: Cпецназовца-копа, боясь, что он вот-вот слетит с катушек, решают перевести на другую работу. Но, конечно, не бумажки перекладывать, а в только что созданный отдел по борьбе с преступлениями, совершенными на почве психических расстройств и заболеваний. Типа, и квалификацию не растеряет, и всегда под присмотром психиатра.

Качество: WEB-DLRip
Формат: AVI
Видео кодек: XviD
Аудио кодек: MP3
Видео: 720x400 (16:9), 25.000 fps, 1 300 Kbps (0.181 bit/pixel)
Аудио#1: 48.0 KHz, 2 ch, 128 Kbps, CBR Русский
Общее
Полное имя : D:\Cracked\Cracked.s01e01.avi
Формат : AVI
Формат/Информация : Audio Video Interleave
Размер файла : 432 Мбайт
Продолжительность : 41 м.
Общий поток : 1438 Кбит/сек
Программа кодирования : VirtualDubMod 1.5.10.2 (build 2540/release)
Библиотека кодирования : VirtualDubMod build 2540/release

Видео
Идентификатор : 0
Формат : MPEG-4 Visual
Профиль формата : Advanced Simple@L5
Параметр BVOP формата : 1
Параметр QPel формата : Нет
Параметр GMC формата : Без точки перехода
Параметр матрицы формата : Default (MPEG)
Идентификатор кодека : XVID
Идентификатор кодека/Подсказка : XviD
Продолжительность : 41 м.
Битрейт : 1300 Кбит/сек
Ширина : 720 пикселей
Высота : 400 пикселей
Соотношение сторон : 16:9
Частота кадров : 25,000 кадров/сек
Цветовое пространство : YUV
Субдискретизация насыщенности : 4:2:0
Битовая глубина : 8 бит
Тип развёртки : Прогрессивная
Метод сжатия : С потерями
Бит/(Пиксели*Кадры) : 0.181
Размер потока : 390 Мбайт (90%)
Библиотека кодирования : XviD 1.2.1 (UTC 2008-12-04)

Аудио
Идентификатор : 1
Формат : MPEG Audio
Версия формата : Version 1
Профиль формата : Layer 3
Идентификатор кодека : 55
Идентификатор кодека/Подсказка : MP3
Продолжительность : 41 м.
Вид битрейта : Постоянный
Битрейт : 128 Кбит/сек
Каналы : 2 канала
Частота : 48,0 КГц
Метод сжатия : С потерями
Размер потока : 38,4 Мбайт (9%)
Выравнивание : Соединение по промежуткам
Продолжительность промежутка : 40 мс. (1,00 видеокадр)
Время предзагрузки промежутка : 504 мс.
Библиотека кодирования : LAME3.98r
Настройки программы : -m s -V 4 -q 2 -lowpass 17 -b 128

pb.wtf



Скачать Надломленные души через торрент http://pic1.kartinco.top/images/9/9xnos.jpg Скачать фильм Надломленные души через торрент бесплантно в хорошем качестве Описание: Cпецназовца-копа, боясь, что он вот-вот слетит с катушек, решают перевести на другую работу. Но, конечно, не бумажки ... 4 10 3
Торрент: Зарегистрирован [2015-02-20 09:09] · скачан: 92 раз
Статус: √ проверено
Размер: 5.48 GB
Как cкачать? Как скачать Надломленные души через торрент | qTorrent

% Раздел Тема Автор DL S | L
Зарубежные сериалы [ 4.6 GB ] Надломленные души / Cracked / Сезон: 2 / Серии: 1-8 из 8 [2013 WEB-DLRip] MVO Assasinca Скачать
1 | 0
Зарубежные сериалы [ 11.35 GB ] Надломленные души / Cracked / Сезон: 2 / Серии: 1-8 из 8 [2013 WEB-DL 720p] MVO + Original Assasinca Скачать
1 | 0
Зарубежные сериалы [ 1.68 GB ] Надломленные души / Cracked/Сезон: 1/ Серии: 3 из 13/ [2013 трагедия 720p WEB-DLRip DVO] byblackmexx Скачать
1 | 0

28-11-2019 20:33  

Отключить всю рекламу на сайте

    Дорогой пользователь! Огромная просьба, поблагодарите релизера, оцените раздачу и оставьте свои комментарий, если Вы скачали Надломленные души через торрент бесплатно! Внесите свою лепту в развитие PiratBit!
    Комментировать посты могут только пользователи прошедшие не сложную регистрацию
    Показать сообщения:    

    Надломленные души через торрент
    Скачать бесплатно Надломленные души
    Надломленные души скачать торрент
    Надломленные души смотреть онлайн
    Cкачать фильм Надломленные души бесплатно
    Надломленные души скачать торрент в хорошем качестве
    Надломленные души смотреть онлайн бесплатно в хорошем качестве


    Вы не можете начинать темы
    Вы не можете отвечать на сообщения
    Вы не можете редактировать свои сообщения
    Вы не можете удалять свои сообщения
    Вы не можете голосовать в опросах
    Вы не можете прикреплять файлы к сообщениям
    Вы можете скачивать файлы