Ссылка на приватное зеркало нашего сайта всего за 1$. Внимание количество ограничено!!!

2 сезон

iTunes

1 сезон

1

2 сезон

2 сезон

iTunes

1 сезон

RePack

30

Ultimate

ВАЖНО

ИГРА 18+

pack

RePack

MK11
pack

Забери бонус

RePack

jed

!!Акция!!

Alien_Rage

RePack

fifa19

RePack

Assassins Creed: Odyssey

RePack

NEED FOR SPEED™ PAYBACK

4 сезон

9 сезон

Бесстыжие 9 сезон

Все сериалы

все сериалы на PB.wtf

RePack

FAR CRY 5
  

Надломленные души / Cracked / Сезон: 2 / Серии: 1-8 из 8 (Дон МакБрити, Брюс МакДональд, Джим Донован) [2013, Драма, криминал, детектив, WEB-DLRip] MVO (FOX) pb.wtf

Надломленные души через торрент pb.wtf

Размер: 4.6 GB | Добавлен: 5 лет 9 мес. назад | Торрент скачан:60 раз
Скачать  

20-02-2015 09:33 Надломленные души Скачать торрент  


Надломленные души / Cracked
Год выпуска: 2013
Страна: Канада
Жанр: Драма, криминал, детектив
Продолжительность: ~ 00:43:00
Перевод: Профессиональный многоголосый(FOX)

Режиссер: Дон МакБрити , Брюс МакДональд



В ролях: Дэвид Сатклифф, Луиза Д`Оливера, Дайо Эд, Карен ЛеБлан, Мэйко Нгуйен, Стефани фон Пфеттен, Брук Невин, Пол Попович, Натали Браун, Далаль Бадр, Николас Кэмпбелл, Брюс Рэмсей, Чак Шамата, Хэрмон Уолш, Шона МакДональд, Кристиан Бако, Стив Бачич, Дженесса Грант, Тренна Китинг, Россиф Сазерленд, Лукас Брайант, Роб Стюарт, Энрико Колантони, Ситара Хьюит, Кэтлин Робертсон, Виктор Уэбстер, Стивен МакХэтти, Клер Ранкин, Джордан Джаварис

Описание: Cпецназовца-копа, боясь, что он вот-вот слетит с катушек, решают перевести на другую работу. Но, конечно, не бумажки перекладывать, а в только что созданный отдел по борьбе с преступлениями, совершенными на почве психических расстройств и заболеваний. Типа, и квалификацию не растеряет, и всегда под присмотром психиатра.

Качество: WEB-DLRip
Формат: AVI
Видео кодек: XviD
Аудио кодек: AC3
Видео: 720x400 (16:9), 23.976 fps, 1 671 Kbps (0.242 bit/pixel)
Аудио#1: 48.0 KHz, 2 ch, 192 Kbps, CBR (Russian)
Общее
Полное имя : D:\Надломленные души\Cracked.S02.WEB-DLRip.Rus\Cracked.S02E01.WEB-DLRip.Rus.avi
Формат : AVI
Формат/Информация : Audio Video Interleave
Размер файла : 588 Мбайт
Продолжительность : 43 м.
Общий поток : 1873 Кбит/сек
Программа кодирования : VirtualDubMod 1.5.10.2 (build 2540/release)
Библиотека кодирования : VirtualDubMod build 2540/release

Видео
Идентификатор : 0
Формат : MPEG-4 Visual
Профиль формата : Advanced Simple@L5
Параметр BVOP формата : 2
Параметр QPel формата : Нет
Параметр GMC формата : Без точки перехода
Параметр матрицы формата : Default (MPEG)
Идентификатор кодека : XVID
Идентификатор кодека/Подсказка : XviD
Продолжительность : 43 м.
Битрейт : 1671 Кбит/сек
Ширина : 720 пикселей
Высота : 400 пикселей
Соотношение сторон : 16:9
Частота кадров : 23,976 кадра/сек
Цветовое пространство : YUV
Субдискретизация насыщенности : 4:2:0
Битовая глубина : 8 бит
Тип развёртки : Прогрессивная
Метод сжатия : С потерями
Бит/(Пиксели*Кадры) : 0.242
Размер потока : 525 Мбайт (89%)
Библиотека кодирования : XviD 64

Аудио
Идентификатор : 1
Формат : AC-3
Формат/Информация : Audio Coding 3
Расширение режима : CM (complete main)
Параметр Endianness формата : Big
Идентификатор кодека : 2000
Продолжительность : 43 м.
Вид битрейта : Постоянный
Битрейт : 192 Кбит/сек
Каналы : 2 канала
Расположение каналов : Front: L R
Частота : 48,0 КГц
Битовая глубина : 16 бит
Метод сжатия : С потерями
Размер потока : 60,3 Мбайт (10%)
Выравнивание : Разделение по промежуткам
Продолжительность промежутка : 42 мс. (1,00 видеокадр)
Время предзагрузки промежутка : 500 мс.

pb.wtf



Скачать Надломленные души через торрент http://pic1.kartinco.top/images/9/wx6wt.jpg Скачать фильм Надломленные души через торрент бесплантно в хорошем качестве Описание: Cпецназовца-копа, боясь, что он вот-вот слетит с катушек, решают перевести на другую работу. Но, конечно, не бумажки ... 10 10 1
Торрент: Зарегистрирован [2015-02-20 09:33] · скачан: 60 раз
Статус: √ проверено
Размер: 4.6 GB
Как cкачать? Как скачать Надломленные души через торрент | qTorrent

% Раздел Тема Автор DL S | L
Зарубежные сериалы [ 11.35 GB ] Надломленные души / Cracked / Сезон: 2 / Серии: 1-8 из 8 [2013 WEB-DL 720p] MVO + Original Assasinca Скачать
1 | 0

28-11-2019 20:33  

Отключить всю рекламу на сайте

    Дорогой пользователь! Огромная просьба, поблагодарите релизера, оцените раздачу и оставьте свои комментарий, если Вы скачали Надломленные души через торрент бесплатно! Внесите свою лепту в развитие PiratBit!
    Комментировать посты могут только пользователи прошедшие не сложную регистрацию
    Показать сообщения:    

    Надломленные души через торрент
    Скачать бесплатно Надломленные души
    Надломленные души скачать торрент
    Надломленные души смотреть онлайн
    Cкачать фильм Надломленные души бесплатно
    Надломленные души скачать торрент в хорошем качестве
    Надломленные души смотреть онлайн бесплатно в хорошем качестве


    Вы не можете начинать темы
    Вы не можете отвечать на сообщения
    Вы не можете редактировать свои сообщения
    Вы не можете удалять свои сообщения
    Вы не можете голосовать в опросах
    Вы не можете прикреплять файлы к сообщениям
    Вы можете скачивать файлы