новый адрес
Мега распродажа FORZA HORIZON 4 ULTIMATE+ВСЕ DLC+ОНЛАЙН всего за 499р. 349 руб. (супер цена). Внимание количество ограничено!!!

iTunes

1+1

iTunes

мы

iTunes

1

iTunes

Чернобыль

iTunes

Ральф против интернета

Лицензия

ПШазам

Лицензия

Игра престолов

Лицензия

30
pack

ВАЖНО

!!Акция!!

Alien_RageХит недели

RePack

Resident Evil 21

ИГРА 18+

pack

RePack

Metro:Exodus

!!Акция!!

Alien_Rage

RePack

fifa19

RePack

Assassins Creed: Odyssey

RePack

NEED FOR SPEED™ PAYBACK

3 сезон

9 сезон

Бесстыжие 9 сезон

Все сериалы

все сериалы на PB.wtf

RePack

FAR CRY 5
Ребята, катастрофически не хватает 1900р. для оплаты серверов за Октябрь (всвязи с блокировками трафик упал в 3 раза), 1-2р., выручайте.
  

Бывает и так (Владимир Архангельский, Язгельды Сеидов) [1965, СССР, комедия, VHSRip) pb.wtf

Бывает и так через торрент pb.wtf

Размер: 1.07 GB | Добавлен: 4 года 8 мес. назад | Торрент скачан:514 раз
Скачать  

20-02-2015 10:43 Бывает и так Скачать торрент  

Бывает и так


  • Год выпуска: 1965
  • Страна: СССР
  • Жанр: комедия
  • Продолжительность: 01:10:40
  • Перевод: Не требуется

  • Режиссер: Владимир Архангельский, Язгельды Сеидов
  • В ролях:

    Алексей Смирнов (Аполлон Чокаев), Савелий Крамаров (Веселкин), Георгий Вицин, Нина Агапова (Находкина-Приходкина), Евгений Моргунов, Георгий Милляр, Антонина Рустамова (автоинспектор Курбанова), Елена Рысина, Станислав Соколов (молодой киномеханик), Ораз Ходжаев, Вячеслав Гостинский (художник), Эммануил Геллер

  • Описание:
    Фильм состоит из трех комедийных новелл: «Сбежала машина», «Ночной сеанс» и «Скелет Аполлона». Новелла "Скелет Аполлона": Руководители "научного" учреждения под замысловатой вывеской «Гидрозверемясоптицерыбопроект», устроили в своей конторе настоящую «кормушку». На тучной государственной ниве, прибавляя в собственном весе, они не забывали и о своих кошельках. А для создания видимости активной научной работы, лжеучёные решили срочно обзавестись... скелетом кита.
  • Рейтинг:



  • Качество: VHSRip
  • Формат: :AVI
  • Видео кодек: xvid
  • Аудио кодек: MP3
  • Видео: 640x480 (4:3), 2015 kbps, 25 fps, 0,262 bpp
  • Аудио: 2.0 / 44 kHz / 128 kbps /
  • Релиз от: Afanas62 Спасибо за рип nigelliri Большое спасибо за постер Человек91

    Код:

    General
    Complete name                            : D:\Фильмы\Bivaet_i_tak.avi
    Format                                   : AVI
    Format/Info                              : Audio Video Interleave
    Format profile                           : OpenDML
    File size                                : 1.07 GiB
    Duration                                 : 1h 10mn
    Overall bit rate                         : 2 160 Kbps
    Writing application                      : Lavf54.63.104

    Video
    ID                                       : 0
    Format                                   : xvid
    Codec ID                                 : xvid
    Duration                                 : 1h 10mn
    Bit rate                                 : 2 016 Kbps
    Width                                    : 640 pixels
    Height                                   : 480 pixels
    Display aspect ratio                     : 4:3
    Frame rate                               : 25.000 fps
    Bits/(Pixel*Frame)                       : 0.262
    Stream size                              : 1 019 MiB (93%)

    Audio
    ID                                       : 1
    Format                                   : MPEG Audio
    Format version                           : Version 1
    Format profile                           : Layer 3
    Mode                                     : Joint stereo
    Mode extension                           : MS Stereo
    Codec ID                                 : 55
    Codec ID/Hint                            : MP3
    Duration                                 : 1h 10mn
    Bit rate mode                            : Constant
    Bit rate                                 : 128 Kbps
    Channel(s)                               : 2 channels
    Sampling rate                            : 44.1 KHz
    Compression mode                         : Lossy
    Stream size                              : 64.7 MiB (6%)
    Alignment                                : Aligned on interleaves
    Interleave, duration                     : 26 ms (0.65 video frame)


    Скриншоты:



    pb.wtf



  • Скачать Бывает и так через торрент http://i66.fastpic.ru/big/2015/0220/8d/d00f2b5edc39084dcd9fb06a9330dd8d.jpg Скачать фильм Бывает и так через торрент бесплантно в хорошем качестве Описание: Фильм состоит из трех комедийных новелл: «Сбежала машина», «Ночной сеанс» и «Скелет Аполлона». Новелла "Скелет Аполлона": ... 9.8 10 31
    Info! Золотая раздача, скачанное не засчитывается.
    Торрент: Зарегистрирован [2015-02-20 10:43] · скачан: 514 раз
    Статус: √ проверено
    Размер: 1.07 GB
    Как cкачать? Как скачать Бывает и так через торрент | qTorrent


    >> Регистрируемся здесь <<






    Отзывы и комментарии о схеме читаем и пишем здесь: ---> Отзывы и комментарии о схеме

    Новые благодарочки в телеграм довольных пользователей:
    скриншот   скриншот   скриншот   скриншот   скриншот

    20-02-2015 11:13 Бывает и так Скачать торрент  

    Сразу золото! и Спасибо!pb.wtf



    20-02-2015 12:06 Бывает и так Скачать торрент  

    svift83 писал(а):

    Сразу золото! и Спасибо!

    Вам спасибо!!! pb.wtf



    20-02-2015 12:15 Бывает и так Скачать торрент  

    Фильм то явно с"полки"достали.Не припомню в своей молодости такой комедии да ещё с такими Актёрами!Видимо,тогдашней власти оооочень не понравилась сатира в этом фильме.Себя увидели.pb.wtf



    20-02-2015 12:56 Бывает и так Скачать торрент  

    Stopper68 писал(а):

    Фильм то явно с"полки"достали.Не припомню в своей молодости такой комедии да ещё с такими Актёрами!Видимо,тогдашней власти оооочень не понравилась сатира в этом фильме.Себя увидели.

    Тоже не смотрел! Вот и не смог пройти мимо) Смотрим) Спасибо ребятам! pb.wtf



    20-02-2015 12:58 Бывает и так Скачать торрент  

    Спасибо! pb.wtf



    20-02-2015 18:12 Бывает и так Скачать торрент  

    ОоО как так ....100% спасибо!!!pb.wtf



    22-02-2015 07:55 Бывает и так Скачать торрент  

    Тоже не могу вспомнить ни по названию ни по скринам данное произведение видно в запасниках пылилось глянем. Спасибо.pb.wtf



    22-02-2015 11:31 Бывает и так Скачать торрент  

    Полный бред! Если лежало - пусть лежит ещё столько же лет!pb.wtf



    13-07-2015 13:56 Бывает и так Скачать торрент  

    pb.wtf



      Дорогой пользователь! Огромная просьба, поблагодарите релизера, оцените раздачу и оставьте свои комментарий, если Вы скачали Бывает и так через торрент бесплатно! Внесите свою лепту в развитие PiratBit!
      Комментировать посты могут только пользователи прошедшие не сложную регистрацию
      Показать сообщения:    

      Бывает и так через торрент
      Скачать бесплатно Бывает и так
      Бывает и так скачать торрент
      Бывает и так смотреть онлайн
      Cкачать фильм Бывает и так бесплатно
      Бывает и так скачать торрент в хорошем качестве
      Бывает и так смотреть онлайн бесплатно в хорошем качестве


      Вы не можете начинать темы
      Вы не можете отвечать на сообщения
      Вы не можете редактировать свои сообщения
      Вы не можете удалять свои сообщения
      Вы не можете голосовать в опросах
      Вы не можете прикреплять файлы к сообщениям
      Вы можете скачивать файлы