Ссылка на приватное зеркало нашего сайта всего за 1$. Внимание количество ограничено!!!

2 сезон

iTunes

1 сезон

1

2 сезон

2 сезон

iTunes

1 сезон

RePack

30

Новинка

ВАЖНО

ИГРА 18+

pack

RePack

MK11
pack

Забери бонус

RePack

jed

!!Акция!!

Alien_Rage

RePack

fifa19

RePack

Assassins Creed: Odyssey

RePack

NEED FOR SPEED™ PAYBACK

4 сезон

9 сезон

Бесстыжие 9 сезон

Все сериалы

все сериалы на PB.wtf

RePack

FAR CRY 5
  

Босх / Bosch / Сезон: 1 / Серии 1-10 из 10(Джим МакКэй) [2015 г., триллер, детектив, WEBRip]DVO(HamsterStudio) pb.wtf

Босх через торрент pb.wtf

Размер: 4.19 GB | Добавлен: 5 лет 9 мес. назад | Торрент скачан:131 раз
Скачать  

20-02-2015 15:53 Босх Скачать торрент  


Босх / Bosch
Год выпуска: 2015
Страна: США
Жанр: триллер, детектив
Продолжительность: ~ 00:50:00
Перевод: Профессиональный двухголосый(HamsterStudio)

Режиссер: Джим МакКэй



В ролях: Титус Уэлливер, Джэми Гектор, Эми Акино, Эми Прайс-Фрэнсис, Энни Вершинг, Скотт Уилсон, Лэнс Реддик, Алан Розенберг, Валери Крус, Абрахам Бенруби

Описание: Сериал основан на бестселлере Майкла Коннели о детективе убойного отдела Лос Анджелеса Гарри Босхе, который ведет расследование убийства 13-ти летнего мальчика, в то время как сам обвиняется в убийстве серийного маньяка.

Качество: WEBRip
Формат: MPEG-4
Видео кодек:AVC
Аудио кодек: AAC
Видео: 720x404 (16:9), 24.000 fps, 1 200 Kbps (0.172 bit/pixel)
Аудио#1: 48.0 KHz, 2 ch, 192 Kbps, CBR

✦ Перевод содержит ненормативную лексику!

Добавлена 7-10 серия

General
Complete name : G:\Сериалы\Детектив Босх\Bosch.S01.WEBRip\Bosch.S01E01.WEBRip.mp4
Format : MPEG-4
Format profile : Base Media
Codec ID : isom
File size : 442 MiB
Duration : 44mn 52s
Overall bit rate : 1 377 Kbps
Movie name : 10
Track name/Position : 1
Recorded date : 2015
Writing application : Lavf56.1.100
Comment : www.dvdvideosoft.com

Video
ID : 1
Format : AVC
Format/Info : Advanced Video Codec
Format profile : Baseline@L2.0
Format settings, CABAC : No
Format settings, ReFrames : 1 frame
Codec ID : avc1
Codec ID/Info : Advanced Video Coding
Duration : 44mn 52s
Bit rate : 1 200 Kbps
Width : 720 pixels
Height : 404 pixels
Display aspect ratio : 16:9
Frame rate mode : Constant
Frame rate : 24.000 fps
Color space : YUV
Chroma subsampling : 4:2:0
Bit depth : 8 bits
Scan type : Progressive
Bits/(Pixel*Frame) : 0.172
Stream size : 379 MiB (86%)
Writing library : x264 core 142 r2453 ea0ca51
Encoding settings : cabac=0 / ref=1 / deblock=1:0:0 / analyse=0x1:0x1 / me=hex / subme=1 / psy=1 / psy_rd=1.00:0.00 / mixed_ref=0 / me_range=16 / chroma_me=1 / trellis=0 / 8x8dct=0 / cqm=0 / deadzone=21,11 / fast_pskip=1 / chroma_qp_offset=0 / threads=3 / lookahead_threads=1 / sliced_threads=0 / nr=0 / decimate=1 / interlaced=0 / bluray_compat=0 / constrained_intra=0 / bframes=0 / weightp=0 / keyint=250 / keyint_min=25 / scenecut=40 / intra_refresh=0 / rc=abr / mbtree=0 / bitrate=1200 / ratetol=1.0 / qcomp=0.60 / qpmin=0 / qpmax=69 / qpstep=4 / ip_ratio=1.40 / aq=1:1.00

Audio
ID : 2
Format : AAC
Format/Info : Advanced Audio Codec
Format profile : LC
Codec ID : 40
Duration : 44mn 52s
Bit rate mode : Constant
Bit rate : 192 Kbps
Channel(s) : 2 channels
Channel positions : Front: L R
Sampling rate : 48.0 KHz
Compression mode : Lossy
Stream size : 61.6 MiB (14%)

Когда раздача ведётся путём добавления новых серий, при каждом добавлении создётся новый торрент. Чтобы начать докачку новой серии, пользователям необходимо сделать следующее:
(1) остановить скачивание,
(2) удалить старый торрент у себя из клиента (старые серии удалять не надо),
(3) скачать новый торрент и запустить его у себя в клиенте вместо старого, при этом указать клиенту путь в старую папку, куда и должно происходить скачивание новых серий.
Ваш клиент при этом должен произвести хеширование (проверку) старой папки (если не производит сам - помогите ему сделать это), и будет докачивать только те серии, которых у вас ещё нет. Старые серии при этом не удаляются, а продолжают раздаваться!
Eсли вы уже удалили старые серии, то предотвратить повторную закачку старых серий можно, отжав галочку в соответсвующих местах при запуске нового торрента. По возможности, желательно не удалять старые серии как можно дольше, чтобы релизёр не столько продолжал раздавать старые серии, а смог сконцентрироваться на новых.
pb.wtf



Скачать Босх через торрент http://pic1.kartinco.top/images/9/klmbt.jpg Скачать фильм Босх через торрент бесплантно в хорошем качестве Описание: Сериал основан на бестселлере Майкла Коннели о детективе убойного отдела Лос Анджелеса Гарри Босхе, который ведет расследование ... 10 10 8
Info! Серебряная раздача, засчитывается только 50% скачанного.
Торрент: Зарегистрирован [2015-02-24 14:46] · скачан: 131 раз
Статус: √ проверено
Размер: 4.19 GB
Как cкачать? Как скачать Босх через торрент | qTorrent

% Раздел Тема Автор DL S | L
Зарубежные сериалы [ 19.33 GB ] Босх / Бош / Bosch / Сезон: 5 / Серия: 1-6 из 10 [2019 WEB-DL 1080p] DUB [True Dubbing Studio] bober100 Скачать
1 | 0
Зарубежные сериалы [ 13.14 GB ] Босх / Бош / Bosch / Сезон: 6 / Серии: 1-10 из 10 [2020 WEBRip 720p] MVO [HDRezka studio] bober100 Скачать
1 | 0
Зарубежные сериалы [ 6.23 GB ] Босх / Бош / Bosch / Сезон: 6 / Серии: 1-10 из 10 [2020 WEB-DLRip] MVO [TVShows] bober100 Скачать
2 | 0
Зарубежные сериалы [ 27.78 GB ] Босх / Бош / Bosch / Сезон: 6 / Серии: 1-10 из 10 [2020 WEBRip 1080p] [MVO] killermax2013 Скачать
1 | 0
Фильмы без перевода [ 28.96 GB ] Босх / Бош / Bosch / Сезон: 6 / Серии 1-10 из 10 [2020 WEBRip 1080p] [Multi Subs] killermax2013 Скачать
1 | 0
Зарубежные сериалы [ 38.84 GB ] Босх / Бош / Bosch / Сезон: 2 / Серия: 1-10 из 10 [2016 WEBRip 1080p] MVO [TVShows] bober100 Скачать
1 | 0
Зарубежные сериалы [ 34.84 GB ] Босх / Бош / Bosch / Сезон: 4 / Серия: 1-10 из 10 [2018 WEB-DL 1080p] DUB [True Dubbing Studio] bober100 Скачать
1 | 0


Последний раз редактировалось: Assasinca (2015-02-24 14:46), всего редактировалось 2 раз(а)

28-11-2019 20:33  

Отключить всю рекламу на сайте

20-02-2015 19:10 Босх Скачать торрент  

Ждал большего(pb.wtf



22-02-2015 09:05 Босх Скачать торрент  

И маты куда то со временем исчезли))pb.wtf



24-02-2015 13:10 Босх Скачать торрент  

сериал уже закончился а серий новых нетpb.wtf



    Дорогой пользователь! Огромная просьба, поблагодарите релизера, оцените раздачу и оставьте свои комментарий, если Вы скачали Босх через торрент бесплатно! Внесите свою лепту в развитие PiratBit!
    Комментировать посты могут только пользователи прошедшие не сложную регистрацию
    Показать сообщения:    

    Босх через торрент
    Скачать бесплатно Босх
    Босх скачать торрент
    Босх смотреть онлайн
    Cкачать фильм Босх бесплатно
    Босх скачать торрент в хорошем качестве
    Босх смотреть онлайн бесплатно в хорошем качестве


    Вы не можете начинать темы
    Вы не можете отвечать на сообщения
    Вы не можете редактировать свои сообщения
    Вы не можете удалять свои сообщения
    Вы не можете голосовать в опросах
    Вы не можете прикреплять файлы к сообщениям
    Вы можете скачивать файлы