Ссылка на приватное зеркало нашего сайта всего за 1$. Внимание количество ограничено!!!

2 сезон

iTunes

1 сезон

1

iTunes

iTunes

iTunes

1 сезон

RePack

30

ИГРА 18+

pack

ВАЖНО

!!Акция!!

Alien_RageХит недели

RePack

MK11
pack

Забери бонус

RePack

jed

!!Акция!!

Alien_Rage

RePack

fifa19

RePack

Assassins Creed: Odyssey

RePack

NEED FOR SPEED™ PAYBACK

4 сезон

9 сезон

Бесстыжие 9 сезон

Все сериалы

все сериалы на PB.wtf

RePack

FAR CRY 5
  

Сверхновая звезда / Supernova (Тамар ван ден Доп / Tamar van den Dop) [2014, Нидерланды, драма, DVDRip, Любительский (одноголосый)] pb.wtf

Сверхновая звезда через торрент pb.wtf

Размер: 1.37 GB | Добавлен: 5 лет 8 мес. назад | Торрент скачан:70 раз
Скачать  

20-02-2015 23:24 Сверхновая звезда Скачать торрент  

Сверхновая звезда / Supernova

Год выпуска: 2014
Страна: Нидерланды
Жанр: драма
Продолжительность: 01:44:26
Перевод: Любительский (одноголосый)
Субтитры: Отсутствует
Режиссер: Тамар ван ден Доп / Tamar van den Dop
В ролях:


Гайте Янсен (Meis), Тамар ван ден Доп (Mom), Боб Шварце (Dad), Элиз ван 'т Лаар (Sue)

Описание:
Юная героиня драмы, пятнадцатилетняя Мэйс, живет в небольшом доме у дороги, в пустынной местности. Её бабушка дни напролёт лишь качает головой, сидя в инвалидном кресле. Её отец практически не покидает любимый диван да и мать практически ничего не делает. Мэйс катается по округе на своём велосипеде, мечтая обо всём на свете. Лишь изредка она встречается с подругой, и тогда они говорят только о мальчиках. И вот однажды, рядом с домом Мэйс, в автокатастрофу попадает молодой симпатичный парень...

Рейтинг:
Бюджет:€1 400 000
Качество: DVDRip
Формат: AVI
Видео кодек:XviD
Аудио кодек:AC3
Видео: XviD, 720x304 (2.35:1), 1597 kbps, 25 fps, 0,292 bpp
Аудио: AC3 / 2.0 / 48 kHz / 192 kbps / 16 bit - Любительский (одноголосый) [Павел Морозов aka PashaUp]

General
Complete name : D:\_uTorrent_\Supernova.avi
Format : AVI
Format/Info : Audio Video Interleave
File size : 1.37 GiB
Duration : 1h 44mn
Overall bit rate : 1 872 Kbps
Writing application : VirtualDubMod 1.5.10.2 (build 2540/release)
Writing library : VirtualDubMod build 2540/release

Video
ID : 0
Format : MPEG-4 Visual
Format profile : Advanced Simple@L5
Format settings, BVOP : 1
Format settings, QPel : No
Format settings, GMC : No warppoints
Format settings, Matrix : Default (MPEG)
Codec ID : XVID
Codec ID/Hint : XviD
Duration : 1h 44mn
Bit rate : 1 597 Kbps
Width : 720 pixels
Height : 304 pixels
Display aspect ratio : 2.35:1
Frame rate : 25.000 fps
Color space : YUV
Chroma subsampling : 4:2:0
Bit depth : 8 bits
Scan type : Progressive
Compression mode : Lossy
Bits/(Pixel*Frame) : 0.292
Stream size : 1.17 GiB (85%)
Writing library : XviD 1.2.1 (UTC 2008-12-04)

Audio
ID : 1
Format : AC-3
Format/Info : Audio Coding 3
Mode extension : CM (complete main)
Codec ID : 2000
Duration : 1h 44mn
Bit rate mode : Constant
Bit rate : 192 Kbps
Channel(s) : 2 channels
Channel positions : Front: L R
Sampling rate : 48.0 KHz
Bit depth : 16 bits
Compression mode : Lossy
Stream size : 143 MiB (10%)
Alignment : Split accross interleaves

[/code]
pb.wtf



Скачать Сверхновая звезда через торрент http://i58.fastpic.ru/big/2015/0221/55/df252f5902f749a4424c88b6cbc67255.png Скачать фильм Сверхновая звезда через торрент бесплантно в хорошем качестве Описание: Юная героиня драмы, пятнадцатилетняя Мэйс, живет в небольшом доме у дороги, в пустынной местности. Её бабушка дни напролёт лишь ... 10 10 5
Торрент: Зарегистрирован [2015-02-20 23:24] · скачан: 70 раз
Статус: T временная
Размер: 1.37 GB
Как cкачать? Как скачать Сверхновая звезда через торрент | qTorrent

28-11-2019 20:33  

Отключить всю рекламу на сайте

    Дорогой пользователь! Огромная просьба, поблагодарите релизера, оцените раздачу и оставьте свои комментарий, если Вы скачали Сверхновая звезда через торрент бесплатно! Внесите свою лепту в развитие PiratBit!
    Комментировать посты могут только пользователи прошедшие не сложную регистрацию
    Показать сообщения:    

    Сверхновая звезда через торрент
    Скачать бесплатно Сверхновая звезда
    Сверхновая звезда скачать торрент
    Сверхновая звезда смотреть онлайн
    Cкачать фильм Сверхновая звезда бесплатно
    Сверхновая звезда скачать торрент в хорошем качестве
    Сверхновая звезда смотреть онлайн бесплатно в хорошем качестве


    Вы не можете начинать темы
    Вы не можете отвечать на сообщения
    Вы не можете редактировать свои сообщения
    Вы не можете удалять свои сообщения
    Вы не можете голосовать в опросах
    Вы не можете прикреплять файлы к сообщениям
    Вы можете скачивать файлы