2 сезон

iTunes

MVO

1

2 сезон

iTunes

iTunes

1 сезон

RePack

30

Новинка

ВАЖНО

ИГРА 18+

pack

RePack

MK11
pack

Легкие деньги

RePack

jed

RePack

fifa19

RePack

RDR2

RePack

NEED FOR SPEED™ PAYBACK

4 сезон

9 сезон

Бесстыжие 9 сезон

Все сериалы

все сериалы на PB.wtf

RePack

FAR CRY 5

Anonymous, доброй ночи, мы не успеваем собрать деньги на оплату серверов за декабрь и январь, помогите нам пожалуйста в это трудное время. В качестве благодарности мы отключим Вам всю рекламу на сайте (укажите свой ник в строку Ваше имя)!

×
  
Magnet ссылка

Исмаэль / Ismael (Марсело Пиньейро / Marcelo Piñeyro) [2013, Испания, драма, DVDRip, Профессиональный многоголосый] pb.wtf

Исмаэль через торрент pb.wtf

Размер: 1.38 GB | Добавлен: 5 лет 10 мес. назад | Торрент скачан:240 раз
Скачать  

20-02-2015 23:44 Исмаэль Скачать торрент  

Исмаэль / Ismael

Год выпуска: 2013
Страна: Испания
Жанр: драма
Продолжительность: 01:46:36
Перевод: Профессиональный многоголосый
Субтитры: Отсутствует
Режиссер: Марсело Пиньейро / Marcelo Piñeyro
В ролях:


Белен Руэда (Nora), Марио Касас (Félix), Серхи Лопес (Jordi), Элла Квеку, Хуан Диего Ботто (Luis), Ларссон ду Амарал (Ismael), Микель Иглесиас (Chino), Nabil Bouyazzam (Aziz), Samad El Gandhi (Mogollón), Michael Harran (Bonobo), Хемма Брио (Leyre), Кармела Пош (Profesora Centro)

Описание:
Восьмилетний Исмаэль Тчоу отправляется на поезде из Мадрида в Барселону. Он убежал из дома, потому что хочет познакомиться с Феликсом Амбросом. Его единственная зацепка - письмо, адресованное его матери, и указанный в нем адрес квартиры в Барселоне. Мальчик приезжает по адресу, но в квартире вместо своего отца он встречает элегантную женщину лет пятидесяти, Нору, которая оказывается матерью Феликса и, таким образом, его бабушкой. В результате этой встречи, спровоцированной желанием Исмаэля познакомиться со своим биологическим отцом, все персонажи постараются свести счеты со своим прошлым.

Рейтинг:

Качество: DVDRip
Формат: AVI
Видео кодек:XviD
Аудио кодек:AC3
Видео: XviD, 720x300 (2.40:1), 1127 kbps, 25 fps, 0,209 bpp
Аудио №1: AC3 / 2.0 / 48 kHz / 192 kbps / 16 bit - Профессиональное многоголосое
Аудио №2: AC3 / 5.1 / 48 kHz / 448 kbps / 16 bit - (оригинал)


General
Complete name : D:\_uTorrent_\Ismael.2013.P.DVDRip.1400MB.avi
Format : AVI
Format/Info : Audio Video Interleave
File size : 1.38 GiB
Duration : 1h 46mn
Overall bit rate : 1 852 Kbps
Writing application : VirtualDubMod 1.5.10.2 (build 2540/release)
Writing library : VirtualDubMod build 2540/release

Video
ID : 0
Format : MPEG-4 Visual
Format profile : Advanced Simple@L5
Format settings, BVOP : 2
Format settings, QPel : No
Format settings, GMC : No warppoints
Format settings, Matrix : Default (MPEG)
Muxing mode : Packed bitstream
Codec ID : XVID
Codec ID/Hint : XviD
Duration : 1h 46mn
Bit rate : 1 128 Kbps
Width : 720 pixels
Height : 300 pixels
Display aspect ratio : 2.40:1
Frame rate : 25.000 fps
Color space : YUV
Chroma subsampling : 4:2:0
Bit depth : 8 bits
Scan type : Progressive
Compression mode : Lossy
Bits/(Pixel*Frame) : 0.209
Stream size : 860 MiB (61%)
Writing library : XviD 64

Audio #1
ID : 1
Format : AC-3
Format/Info : Audio Coding 3
Mode extension : CM (complete main)
Codec ID : 2000
Duration : 1h 46mn
Bit rate mode : Constant
Bit rate : 192 Kbps
Channel(s) : 2 channels
Channel positions : Front: L R
Sampling rate : 48.0 KHz
Bit depth : 16 bits
Compression mode : Lossy
Stream size : 146 MiB (10%)
Alignment : Split accross interleaves

Audio #2
ID : 2
Format : AC-3
Format/Info : Audio Coding 3
Mode extension : CM (complete main)
Codec ID : 2000
Duration : 1h 46mn
Bit rate mode : Constant
Bit rate : 448 Kbps
Channel(s) : 6 channels
Channel positions : Front: L C R, Side: L R, LFE
Sampling rate : 48.0 KHz
Bit depth : 16 bits
Compression mode : Lossy
Stream size : 342 MiB (24%)
Alignment : Split accross interleaves

[/code]
pb.wtf



Скачать Исмаэль через торрент http://i59.fastpic.ru/big/2015/0221/25/d6d683a9e6889e10b2138a320e5d7425.png Скачать фильм Исмаэль через торрент бесплантно в хорошем качестве Описание: Восьмилетний Исмаэль Тчоу отправляется на поезде из Мадрида в Барселону. Он убежал из дома, потому что хочет познакомиться с ... 10 10 7
Торрент: Зарегистрирован [2015-02-20 23:44] · скачан: 240 раз
Статус: √ проверено
Размер: 1.38 GB
Как cкачать? Как скачать Исмаэль через торрент | UTorrent



Последний раз редактировалось: _KaisiK_ (2015-02-21 12:43), всего редактировалось 1 раз

28-11-2019 20:33  

Отключить всю рекламу на сайте

21-02-2015 06:41 Исмаэль Скачать торрент  

IMDB ссылка не работает.pb.wtf



21-02-2015 12:42 Исмаэль Скачать торрент  

korotkij писал(а):

IMDB ссылка не работает.

исправил спс за бдительность)pb.wtf



    Дорогой пользователь! Огромная просьба, поблагодарите релизера, оцените раздачу и оставьте свои комментарий, если Вы скачали Исмаэль через торрент бесплатно! Внесите свою лепту в развитие PiratBit!
    Комментировать посты могут только пользователи прошедшие не сложную регистрацию
    Показать сообщения:    

    Исмаэль через торрент
    Скачать бесплатно Исмаэль
    Исмаэль скачать торрент
    Исмаэль смотреть онлайн
    Cкачать фильм Исмаэль бесплатно
    Исмаэль скачать торрент в хорошем качестве
    Исмаэль смотреть онлайн бесплатно в хорошем качестве


    Вы не можете начинать темы
    Вы не можете отвечать на сообщения
    Вы не можете редактировать свои сообщения
    Вы не можете удалять свои сообщения
    Вы не можете голосовать в опросах
    Вы не можете прикреплять файлы к сообщениям
    Вы можете скачивать файлы