2 сезон

iTunes

MVO

1

2 сезон

iTunes

iTunes

1 сезон

RePack

30

Ultimate

ВАЖНО

ИГРА 18+

pack

RePack

MK11
pack

Легкие деньги

RePack

jed

RePack

fifa19

RePack

RDR2

RePack

NEED FOR SPEED™ PAYBACK

4 сезон

9 сезон

Бесстыжие 9 сезон

Все сериалы

все сериалы на PB.wtf

RePack

FAR CRY 5

Anonymous, добрый день, мы не успеваем собрать деньги на оплату серверов за декабрь и январь, помогите нам пожалуйста в это трудное время. В качестве благодарности мы отключим Вам всю рекламу на сайте (укажите свой ник в строку Ваше имя)!

×
  
Magnet ссылка

Тайный код жизни / The Code (Майкл Лахманн, Дэн Чилд, Стефэн Кутер) [2013 г., Документальный, наука, математика, HDRip, Профессиональный одноголосый] pb.wtf

Тайный код жизни через торрент pb.wtf

Размер: 2.47 GB | Добавлен: 5 лет 11 мес. назад | Торрент скачан:65 раз
Скачать  

21-02-2015 10:34 Тайный код жизни Скачать торрент  

Тайный код жизни / The Code
Год выпуска: 2013
Страна: Великобритания
Жанр: Документальный, наука, математика
Продолжительность: 3 x ~ 00:55:00
Перевод: Профессиональный одноголосый
Субтитры: нет

Режиссер: Майкл Лахманн, Дэн Чилд, Стефэн Кутер

Описание: Математик, профессор Маркус дю Сатель рассказывает в этом фильме о том, как законы математики пронизывают своей строгой красотой все формы нашего мира.

Доп. информация: В релизе присутствуют не переведенные моменты (примерно около минуты на 3-ю серию.) Т.к русская версия этого фильма урезана. Основной (русский) звук взят с канала Наука 2.0 и дополнен звуком от Discovery Channel.
Видео с канала BBCHD от: Hannibal Работа со звуком: "BL" (БэстЛайв)

Качество: HDRip
Формат: AVI
Видео кодек: XviD
Аудио кодек: AC3
Видео: XviD, ~ 1800 Кбит/с, 720x400
Аудио#1: AC3, 2 ch, 192 Кбит/с
01. Числа / Numbers
Весь мир вокруг нас пронизан тайным кодом. Этот код поможет прочитать законы, управляющие вселенной. Профессора Маркуса Дю Сотой как математика притягивают числа и закономерности вокруг нас. Числа и закономерности встречаются везде, от рыб до кругов, от древнего прошлого до далекого будущего. Вместе они составляют код жизни. Абстрактный мир чисел, дающий нам самое точное описание жизни на планете.

02. Фигуры (Формы) / Shapes
На северной оконечности северной Ирландии существует так называемая "Дорога гигантов" - место, известное породой с необычным столбчатым строением. Около сорока тысяч таких столбиков теснятся на небольшой береговой линии. Правильность и простота этих форм поражает! Они просто не вписываются в грубую окружающую действительность.
Загадка этих шестиугольных базальтовых образований вдохновляла писателей и композиторов. Но их необычайная красота только начало истории. Эти колонны - свидетельства тайных законов геометрии, лежащих в основе природы. Если мы откроем эту взаимосвязь, то мы сможем объяснить форму всего существующего: от крошечного микроба и этих удивительных скал до формирования мира как такового...

3. Предсказания / Prediction
Сколько люди помнят себя, они всегда пытались постичь смысл нашего мира и предсказать, что нам несет будущее. Современная жизнь кажется нам более сложной и непредсказуемой, чем когда-либо. Половина населения планеты живет в оживленных разрастающихся городах.
Каждый день происходит множество неожиданных событий. Они рождаются во взаимодействии различных обстоятельств и, как нам кажется, не поддаются контролю. Нам сложно проследить связь между ними. И только когда мы внимательнее всматриваемся - начинают проглядывать удивительные схемы. Возможно эти схемы указывают нам на код, лежащий в основе нашего существования. Он контролирует не только наш мир и все, что в нем существует, но и нас самих...

Общее
Полное имя : D:\Новая папка\The_Code_HDTVRip\s01e01_Numbers.avi
Формат : AVI
Формат/Информация : Audio Video Interleave
Размер файла : 848 Мбайт
Продолжительность : 59 м.
Общий поток : 2001 Кбит/сек
Программа кодирования : VirtualDubMod 1.5.10.3 | www.virtualdub-fr.org || (build 2550/release)
Библиотека кодирования : VirtualDubMod build 2550/release

Видео
Идентификатор : 0
Формат : MPEG-4 Visual
Профиль формата : Advanced Simple@L5
Параметр BVOP формата : 2
Параметр QPel формата : Нет
Параметр GMC формата : Без точки перехода
Параметр матрицы формата : Default (H.263)
Режим смешивания : Сжатый битовый поток
Идентификатор кодека : XVID
Идентификатор кодека/Подсказка : XviD
Продолжительность : 59 м.
Битрейт : 1800 Кбит/сек
Ширина : 720 пикселей
Высота : 400 пикселей
Соотношение сторон : 16:9
Частота кадров : 25,000 кадров/сек
Цветовое пространство : YUV
Субдискретизация насыщенности : 4:2:0
Битовая глубина : 8 бит
Тип развёртки : Прогрессивная
Метод сжатия : С потерями
Бит/(Пиксели*Кадры) : 0.250
Размер потока : 763 Мбайт (90%)
Библиотека кодирования : XviD 1.2.1 (UTC 2008-12-04)

Аудио
Идентификатор : 1
Формат : AC-3
Формат/Информация : Audio Coding 3
Расширение режима : CM (complete main)
Параметр Endianness формата : Big
Идентификатор кодека : 2000
Продолжительность : 59 м.
Вид битрейта : Постоянный
Битрейт : 192 Кбит/сек
Каналы : 2 канала
Расположение каналов : Front: L R
Частота : 48,0 КГц
Битовая глубина : 16 бит
Метод сжатия : С потерями
Размер потока : 81,4 Мбайт (10%)
Выравнивание : Разделение по промежуткам
Продолжительность промежутка : 40 мс. (1,00 видеокадр)
Время предзагрузки промежутка : 500 мс.

Общее
Полное имя : D:\Новая папка\The_Code_HDTVRip\s01e02_Shapes.avi
Формат : AVI
Формат/Информация : Audio Video Interleave
Размер файла : 837 Мбайт
Продолжительность : 58 м.
Общий поток : 2001 Кбит/сек
Программа кодирования : VirtualDubMod 1.5.10.3 | www.virtualdub-fr.org || (build 2550/release)
Библиотека кодирования : VirtualDubMod build 2550/release

Видео
Идентификатор : 0
Формат : MPEG-4 Visual
Профиль формата : Advanced Simple@L5
Параметр BVOP формата : 2
Параметр QPel формата : Нет
Параметр GMC формата : Без точки перехода
Параметр матрицы формата : Default (H.263)
Режим смешивания : Сжатый битовый поток
Идентификатор кодека : XVID
Идентификатор кодека/Подсказка : XviD
Продолжительность : 58 м.
Битрейт : 1800 Кбит/сек
Ширина : 720 пикселей
Высота : 400 пикселей
Соотношение сторон : 16:9
Частота кадров : 25,000 кадров/сек
Цветовое пространство : YUV
Субдискретизация насыщенности : 4:2:0
Битовая глубина : 8 бит
Тип развёртки : Прогрессивная
Метод сжатия : С потерями
Бит/(Пиксели*Кадры) : 0.250
Размер потока : 752 Мбайт (90%)
Библиотека кодирования : XviD 1.2.1 (UTC 2008-12-04)

Аудио
Идентификатор : 1
Формат : AC-3
Формат/Информация : Audio Coding 3
Расширение режима : CM (complete main)
Параметр Endianness формата : Big
Идентификатор кодека : 2000
Продолжительность : 58 м.
Вид битрейта : Постоянный
Битрейт : 192 Кбит/сек
Каналы : 2 канала
Расположение каналов : Front: L R
Частота : 48,0 КГц
Битовая глубина : 16 бит
Метод сжатия : С потерями
Размер потока : 80,3 Мбайт (10%)
Выравнивание : Разделение по промежуткам
Продолжительность промежутка : 40 мс. (1,00 видеокадр)
Время предзагрузки промежутка : 500 мс.

Общее
Полное имя : D:\Новая папка\The_Code_HDTVRip\s01e03_Prediction.avi
Формат : AVI
Формат/Информация : Audio Video Interleave
Размер файла : 843 Мбайт
Продолжительность : 58 м.
Общий поток : 2001 Кбит/сек
Программа кодирования : VirtualDubMod 1.5.10.3 | www.virtualdub-fr.org || (build 2550/release)
Библиотека кодирования : VirtualDubMod build 2550/release

Видео
Идентификатор : 0
Формат : MPEG-4 Visual
Профиль формата : Advanced Simple@L5
Параметр BVOP формата : 2
Параметр QPel формата : Нет
Параметр GMC формата : Без точки перехода
Параметр матрицы формата : Default (H.263)
Режим смешивания : Сжатый битовый поток
Идентификатор кодека : XVID
Идентификатор кодека/Подсказка : XviD
Продолжительность : 58 м.
Битрейт : 1800 Кбит/сек
Ширина : 720 пикселей
Высота : 400 пикселей
Соотношение сторон : 16:9
Частота кадров : 25,000 кадров/сек
Цветовое пространство : YUV
Субдискретизация насыщенности : 4:2:0
Битовая глубина : 8 бит
Тип развёртки : Прогрессивная
Метод сжатия : С потерями
Бит/(Пиксели*Кадры) : 0.250
Размер потока : 758 Мбайт (90%)
Библиотека кодирования : XviD 1.2.1 (UTC 2008-12-04)

Аудио
Идентификатор : 1
Формат : AC-3
Формат/Информация : Audio Coding 3
Расширение режима : CM (complete main)
Параметр Endianness формата : Big
Идентификатор кодека : 2000
Продолжительность : 58 м.
Вид битрейта : Постоянный
Битрейт : 192 Кбит/сек
Каналы : 2 канала
Расположение каналов : Front: L R
Частота : 48,0 КГц
Битовая глубина : 16 бит
Метод сжатия : С потерями
Размер потока : 80,9 Мбайт (10%)
Выравнивание : Разделение по промежуткам
Продолжительность промежутка : 40 мс. (1,00 видеокадр)
Время предзагрузки промежутка : 500 мс.

pb.wtf



Скачать Тайный код жизни через торрент https://pic1.kartinco.top/images/9/wi45k.jpg Скачать фильм Тайный код жизни через торрент бесплантно в хорошем качестве Описание: Математик, профессор Маркус дю Сатель рассказывает в этом фильме о том, как законы математики пронизывают своей строгой красотой ... 9.3 10 3
Торрент: Зарегистрирован [2015-02-21 10:34] · скачан: 65 раз
Статус: √ проверено
Размер: 2.47 GB
Как cкачать? Как скачать Тайный код жизни через торрент | UTorrent

28-11-2019 20:33  

Отключить всю рекламу на сайте

    Дорогой пользователь! Огромная просьба, поблагодарите релизера, оцените раздачу и оставьте свои комментарий, если Вы скачали Тайный код жизни через торрент бесплатно! Внесите свою лепту в развитие PiratBit!
    Комментировать посты могут только пользователи прошедшие не сложную регистрацию
    Показать сообщения:    

    Тайный код жизни через торрент
    Скачать бесплатно Тайный код жизни
    Тайный код жизни скачать торрент
    Тайный код жизни смотреть онлайн
    Cкачать фильм Тайный код жизни бесплатно
    Тайный код жизни скачать торрент в хорошем качестве
    Тайный код жизни смотреть онлайн бесплатно в хорошем качестве


    Вы не можете начинать темы
    Вы не можете отвечать на сообщения
    Вы не можете редактировать свои сообщения
    Вы не можете удалять свои сообщения
    Вы не можете голосовать в опросах
    Вы не можете прикреплять файлы к сообщениям
    Вы можете скачивать файлы