Ссылка на приватное зеркало нашего сайта всего за 1$. Внимание количество ограничено!!!

2 сезон

iTunes

1 сезон

1

2 сезон

2 сезон

iTunes

1 сезон

RePack

30

Ultimate

ВАЖНО

ИГРА 18+

pack

RePack

MK11
pack

Забери бонус

RePack

jed

!!Акция!!

Alien_Rage

RePack

fifa19

RePack

Assassins Creed: Odyssey

RePack

NEED FOR SPEED™ PAYBACK

4 сезон

9 сезон

Бесстыжие 9 сезон

Все сериалы

все сериалы на PB.wtf

RePack

FAR CRY 5
  

Однажды в сказке / Давным-давно / В некотором царстве / Once Upon a Time / Сезон: 4 / Серии 1-12 (23)(Грег Биман, Марк Майлод, Дин Уайт)[2014 г., Фэнтези, приключения, WEB-DLRip] DUB(FOX)+Original pb.wtf

Однажды в сказке через торрент pb.wtf

Размер: 5.85 GB | Добавлен: 5 лет 8 мес. назад | Торрент скачан:73 раза
Скачать  

21-02-2015 13:14 Однажды в сказке Скачать торрент  







❄ ОДНАЖДЫ В СКАЗКЕ ❄
Год выпуска: 2014
Страна: США
Жанр: Фэнтези, приключения
Продолжительность: ~ 00:43:00
Перевод: Дубляж(FOX)

Режиссер: Грег Биман, Марк Майлод, Дин Уайт



В ролях: Дженнифер Моррисон, Джиннифер Гудвин, Лана Парийя, Джошуа Даллас, Джаред Гилмор, Роберт Карлайл, Рафаэль Сбардж, Меган Ори, Эйон Бэйли, Беверли Эллиотт

Описание: Новые умопомрачительные приключения Эммы Свон, Белоснежки, Прекрасного Принца, Злой Королевы, Крюка, а также других представителей Сказочного Мира. Вместе они будут противостоять силе, столь тёмной, зловещей и непредсказуемой, что даже сам Румпельштильцхен не осмелится вступить с ней в схватку единолично, — Снежной Королеве…

Качество: WEB-DLRip
Формат: AVI
Видео кодек: XviD
Аудио кодек: MP3
Видео: 720x400 (16:9), 23.976 fps, 1 333 Kbps (0.193 bit/pixel)
Аудио#1: 48.0 KHz, 2 ch, 128 Kbps, CBR Русский
Аудио#2: 48.0 KHz, 2 ch, 128 Kbps, CBR Английский

General
Complete name : G:\Сериалы\Однажды в сказке\Однажды в сказке (сезон 4)\Once.Upon.a.Time.s04e01.WEBDLRip.NewStudio.TV.avi
Format : AVI
Format/Info : Audio Video Interleave
File size : 499 MiB
Duration : 43mn 0s
Overall bit rate : 1 623 Kbps
Writing application : VirtualDubMod 1.5.10.2 (build 2540/release)
Writing library : VirtualDubMod build 2540/release

Video
ID : 0
Format : MPEG-4 Visual
Format profile : Advanced Simple@L5
Format settings, BVOP : 2
Format settings, QPel : No
Format settings, GMC : No warppoints
Format settings, Matrix : Default (MPEG)
Codec ID : XVID
Codec ID/Hint : XviD
Duration : 43mn 0s
Bit rate : 1 353 Kbps
Width : 720 pixels
Height : 400 pixels
Display aspect ratio : 16:9
Frame rate : 23.976 fps
Color space : YUV
Chroma subsampling : 4:2:0
Bit depth : 8 bits
Scan type : Progressive
Compression mode : Lossy
Bits/(Pixel*Frame) : 0.196
Stream size : 416 MiB (83%)
Writing library : XviD 64

Audio #1
ID : 1
Format : MPEG Audio
Format version : Version 1
Format profile : Layer 3
Mode : Joint stereo
Mode extension : MS Stereo
Codec ID : 55
Codec ID/Hint : MP3
Duration : 43mn 0s
Bit rate mode : Constant
Bit rate : 128 Kbps
Channel(s) : 2 channels
Sampling rate : 48.0 KHz
Compression mode : Lossy
Stream size : 39.4 MiB (8%)
Alignment : Aligned on interleaves
Interleave, duration : 42 ms (1.00 video frame)
Interleave, preload duratio : 504 ms

Audio #2
ID : 2
Format : MPEG Audio
Format version : Version 1
Format profile : Layer 3
Mode : Joint stereo
Mode extension : MS Stereo
Codec ID : 55
Codec ID/Hint : MP3
Duration : 43mn 0s
Bit rate mode : Constant
Bit rate : 128 Kbps
Channel(s) : 2 channels
Sampling rate : 48.0 KHz
Compression mode : Lossy
Stream size : 39.4 MiB (8%)
Alignment : Aligned on interleaves
Interleave, duration : 42 ms (1.00 video frame)
Interleave, preload duratio : 504 ms

Когда раздача ведётся путём добавления новых серий, при каждом добавлении создётся новый торрент. Чтобы начать докачку новой серии, пользователям необходимо сделать следующее:
(1) остановить скачивание,
(2) удалить старый торрент у себя из клиента (старые серии удалять не надо),
(3) скачать новый торрент и запустить его у себя в клиенте вместо старого, при этом указать клиенту путь в старую папку, куда и должно происходить скачивание новых серий.
Ваш клиент при этом должен произвести хеширование (проверку) старой папки (если не производит сам - помогите ему сделать это), и будет докачивать только те серии, которых у вас ещё нет. Старые серии при этом не удаляются, а продолжают раздаваться!
Eсли вы уже удалили старые серии, то предотвратить повторную закачку старых серий можно, отжав галочку в соответсвующих местах при запуске нового торрента. По возможности, желательно не удалять старые серии как можно дольше, чтобы релизёр не столько продолжал раздавать старые серии, а смог сконцентрироваться на новых.
pb.wtf



Скачать Однажды в сказке через торрент http://pic1.kartinco.top/images/9/uuvxb.jpg Скачать фильм Однажды в сказке через торрент бесплантно в хорошем качестве Описание: Новые умопомрачительные приключения Эммы Свон, Белоснежки, Прекрасного Принца, Злой Королевы, Крюка, а также других ... 10 10 4
Торрент: Зарегистрирован [2015-03-09 16:41] · скачан: 73 раз
Статус: √ проверено
Размер: 5.85 GB
Как cкачать? Как скачать Однажды в сказке через торрент | qTorrent

% Раздел Тема Автор DL S | L
Зарубежные сериалы [ 5.28 GB ] Однажды в сказке / Давным-давно / В некотором царстве / Once Upon a Time / Сезон: 4 / Серии 1-12 [2014- 2015 WEB-DLRip] MVO +Original Assasinca Скачать
1 | 0
Зарубежные сериалы [ 17.1 GB ] Однажды в сказке / Давным-давно / В некотором царстве / Once Upon a Time / Сезон: 4 / Серии 1-12 [2014 WEB-DL 720p ] DUB+Original Assasinca Скачать
1 | 0


Последний раз редактировалось: Assasinca (2015-03-09 16:41), всего редактировалось 1 раз

28-11-2019 20:33  

Отключить всю рекламу на сайте

21-02-2015 21:52 Однажды в сказке Скачать торрент  

класс сериал!!!!!!!!!!pb.wtf



09-03-2015 16:42 Однажды в сказке Скачать торрент  

Добавлена 12-я серияpb.wtf



    Дорогой пользователь! Огромная просьба, поблагодарите релизера, оцените раздачу и оставьте свои комментарий, если Вы скачали Однажды в сказке через торрент бесплатно! Внесите свою лепту в развитие PiratBit!
    Комментировать посты могут только пользователи прошедшие не сложную регистрацию
    Показать сообщения:    

    Однажды в сказке через торрент
    Скачать бесплатно Однажды в сказке
    Однажды в сказке скачать торрент
    Однажды в сказке смотреть онлайн
    Cкачать фильм Однажды в сказке бесплатно
    Однажды в сказке скачать торрент в хорошем качестве
    Однажды в сказке смотреть онлайн бесплатно в хорошем качестве


    Вы не можете начинать темы
    Вы не можете отвечать на сообщения
    Вы не можете редактировать свои сообщения
    Вы не можете удалять свои сообщения
    Вы не можете голосовать в опросах
    Вы не можете прикреплять файлы к сообщениям
    Вы можете скачивать файлы