Присоединяйтесь к нам в Telegram!, здесь всегда актуальный адрес сайта, оперативная поддержка и многое другое!!

>

5.9

iTunes

7.4

iTunes

9.4

1 сезон

1

7.4

2 сезон

7.2

iTunes

7.3

1 сезон

13

6.1

iTunes

8.3

GOG

30

ULTIMATE

pack

9.9

Лицензия

ВАЖНО

ИГРА 18+

pack

7.3

RePack

MK11

7.7

RePack

jed

7.8

RePack

fifa19

8.5

RePack

RDR2

RePack

NEED FOR SPEED™ PAYBACK

5 сезон

9 сезон

Бесстыжие 9 сезон

Все сериалы

все сериалы на PB.wtf

RePack

FAR CRY 5

Anonymous, доброе утро, мы катастрофически не успеваем собрать деньги на оплату серверов, помогите нам пожалуйста 5,10,15р., для нас важна любая помощь . В качестве благодарности мы отключим Вам всю рекламу на сайте (укажите свой ник в строку Ваше имя)!

×
  
Magnet ссылка

Запрещённое музыкальное видео / Uncensored Music Videos vol.3 [2015 г., Adult music clips, House, Dance ,Rap, Rock, Pop..., WEB-DLRip 720p, Оригинал] pb.wtf

Запрещённое музыкальное видео через торрент pb.wtf

Размер: 3.09 GB | Добавлен: 6 лет 9 мес. назад | Торрент скачан:1019 раз
Смотреть онлайн Запрещённое музыкальное видео | Скачать    Ребята, помогите собрать деньги на оплату серверов!!!

21-02-2015 15:13 Запрещённое музыкальное видео Скачать торрент  

Запрещённое музыкальное видео / Uncensored Music Videos vol.3
Год выпуска: 2015
Страна: All World
Жанр: Adult music clips, House, Dance ,Rap, Rock, Pop...
Продолжительность: 02:52:41
Перевод: Оригинал

Описание:
Сборник клипов запрещённого видео....vol.3
01. Reminor - Black earth [04:52]
02. Bride [03:13]
03. Be Shure [03:02]
04. Winter war [06:07]
05. Silver Strain - La Main Gauche [05:11]
06. Kingdom [13:57]
07. Money Dance [02:08]
08. Love Store (BDSM Wedding) [04:09]
09. Silver Strain - A Blue Rose (Twin Peaks) [05:50]
10. Фотовечеринка Т.Просиной - Взрослые Куклы [03:02]
11. 50 Shades of Grey - Duality of Submission [04:16]
12. Best of Boobs - Heart Over Mind [04:24]
13. Out Love [03:43]
14. Dark Shadоws [02:19]
15. Paya pd Insomnia - Paya pd [03:51]
16. Анастасия - Nostalgy [03:10]
17. Carpenter Brut - Obituary [04:48]
18. Parisan Gentleman [01:20]
19. Biting Elbows - Bad Motherfucker [04:56]
20. Sam Skilz & Michelle Shellers - Lazy Sunday [03:09]
21. DAX RIDERS - Infernale [04:49]
22. Liz Ashley - Honky Tonkin [02:51]
23. Habits (Stay High) - Hippie sabatoge [01:40]
24. Stagnant Cult - DemoReel [02:07]
25. Telephone Lights - With Alexis [01:11]
26. Slove - Flash [03:26]
27. Jenna & Her Sexy Big Tits dancing for You [05:33]
28. Spirit of Autumn [02:59]
29. Alysha Brilla - Nobody [04:23]
30. Carpenter Brut - Le Perv [04:34]
31. Emika - Professional Loving [01:22]
32. Dreamdate - Girls [01:47]
33. Couple's Sexy & Magical Valentine [01:44]
34. Shake It Up Christina [02:09]
35. Silver Strain - The Return of Brittanny Kore [02:53]
36. Love - Julien Ribot [03:45]
37. Punkture Sluts - No Hopah [03:47]
38. Sunshine - Arnprior [04:42]
39. Paradiso Festival - A sexy summer dance party [03:53]
40. Royal Blood - Out of The Black [04:13]
41. Enifer - Les Jours Electriques [02:51]
42. NIKITA - Vодопадом [03:42]
43. One Step - From Love To Hate [07:19]
44. RESET! & Nom De Strip - I can see boobies [03:09]
45. Soviet Suprem - PARTY [04:01]
Качество: WEB-DLRip 720p
Формат: MP4
Видео кодек: AVC
Аудио кодек: AAC
Видео: AVC, 1280x720 (16:9), 25.000 fps, 2 474 Kbps (0.107 bit/pixel)
Аудио#1: AAC LC, 44.0-48.0 KHz, 2 ch, 106-256 Kbps, VBR
скриншот   скриншот   скриншот   скриншот   скриншот   скриншот  
скриншот   скриншот   скриншот   скриншот   скриншот   скриншот  

Общее
Полное имя : D:\Архив\Клипы\Uncensored Music Videos vol.3\01. Reminor - Black earth.mp4
Формат : MPEG-4
Профиль формата : Base Media / Version 2
Идентификатор кодека : mp42
Размер файла : 93,1 Мбайт
Продолжительность : 4 м. 52 с.
Режим общего битрейта : Переменный
Общий поток : 2665 Кбит/сек
Дата кодирования : UTC 2013-06-30 08:41:06
Дата пометки : UTC 2013-06-30 08:41:06

Видео
Идентификатор : 1
Формат : AVC
Формат/Информация : Advanced Video Codec
Профиль формата : High@L3.1
Параметр CABAC формата : Да
Параметр ReFrames формата : 4 кадра
Идентификатор кодека : avc1
Идентификатор кодека/Информация : Advanced Video Coding
Продолжительность : 4 м. 52 с.
Битрейт : 2500 Кбит/сек
Ширина : 1280 пикселей
Высота : 720 пикселей
Соотношение сторон : 16:9
Режим частоты кадров : Постоянный
Частота кадров : 29,970 кадров/сек
Цветовое пространство : YUV
Субдискретизация насыщенности : 4:2:0
Битовая глубина : 8 бит
Тип развёртки : Прогрессивная
Бит/(Пиксели*Кадры) : 0.091
Размер потока : 87,4 Мбайт (94%)
Библиотека кодирования : x264 core 129 r2245 bc13772
Настройки программы : cabac=1 / ref=3 / deblock=1:0:0 / analyse=0x3:0x113 / me=hex / subme=7 / psy=1 / psy_rd=1.00:0.00 / mixed_ref=1 / me_range=16 / chroma_me=1 / trellis=1 / 8x8dct=1 / cqm=0 / deadzone=21,11 / fast_pskip=1 / chroma_qp_offset=-2 / threads=12 / lookahead_threads=2 / sliced_threads=0 / nr=0 / decimate=1 / interlaced=0 / bluray_compat=0 / constrained_intra=0 / bframes=3 / b_pyramid=2 / b_adapt=1 / b_bias=0 / direct=1 / weightb=1 / open_gop=0 / weightp=2 / keyint=90 / keyint_min=30 / scenecut=40 / intra_refresh=0 / rc_lookahead=40 / rc=2pass / mbtree=1 / bitrate=2500 / ratetol=1.0 / qcomp=0.60 / qpmin=5 / qpmax=69 / qpstep=4 / cplxblur=20.0 / qblur=0.5 / vbv_maxrate=3750 / vbv_bufsize=12500 / nal_hrd=none / ip_ratio=1.40 / aq=1:1.00
Дата кодирования : UTC 2013-06-30 08:41:06
Дата пометки : UTC 2013-06-30 08:41:06

Аудио
Идентификатор : 2
Формат : AAC
Формат/Информация : Advanced Audio Codec
Профиль формата : LC
Идентификатор кодека : 40
Продолжительность : 4 м. 52 с.
Продолжительность оригинала : 4 м. 53 с.
Вид битрейта : Переменный
Битрейт : 158 Кбит/сек
Каналы : 2 канала
Расположение каналов : Front: L R
Частота : 44,1 КГц
Метод сжатия : С потерями
Размер потока : 5,50 Мбайт (6%)
Размер потока оригинала : 5,50 Мбайт (6%)
Дата кодирования : UTC 2013-06-30 08:41:06
Дата пометки : UTC 2013-06-30 08:41:06

pb.wtf



Скачать Запрещённое музыкальное видео через торрент https://pic1.kartinco.top/images/9/tmcgf.jpg Скачать, смотреть онлайн Запрещённое музыкальное видео бесплантно в хорошем качестве Описание:Сборник клипов запрещённого видео....vol.3 Reminor - Black earth [04:52] Bride [03:13] Be Shure [03:02] Winter war ... 9.8 10 49
Info! Золотая раздача, скачанное не засчитывается.
Торрент: Зарегистрирован [2015-02-21 15:13] · скачан: 1 019 раз
Статус: √ проверено
Размер: 3.09 GB
Как cкачать? Как скачать Запрещённое музыкальное видео через торрент | UTorrent

28-11-2019 20:33  

Отключить всю рекламу на сайте

21-02-2015 15:25 Запрещённое музыкальное видео Скачать торрент  

Шлифанул от души, спасибо авторpb.wtf



    Дорогой пользователь! Огромная просьба, поблагодарите релизера, оцените раздачу и оставьте свои комментарий, если Вы скачали Запрещённое музыкальное видео через торрент бесплатно!
    Комментировать посты могут только пользователи прошедшие не сложную регистрацию
    Показать сообщения:    

    Запрещённое музыкальное видео через торрент
    Скачать бесплатно Запрещённое музыкальное видео
    Запрещённое музыкальное видео скачать торрент
    Запрещённое музыкальное видео смотреть онлайн
    Cкачать фильм Запрещённое музыкальное видео бесплатно
    Запрещённое музыкальное видео скачать торрент в хорошем качестве
    Запрещённое музыкальное видео смотреть онлайн бесплатно в хорошем качестве


    Вы не можете начинать темы
    Вы не можете отвечать на сообщения
    Вы не можете редактировать свои сообщения
    Вы не можете удалять свои сообщения
    Вы не можете голосовать в опросах
    Вы не можете прикреплять файлы к сообщениям
    Вы можете скачивать файлы