Ссылка на приватное зеркало нашего сайта всего за 1$. Внимание количество ограничено!!!

2 сезон

iTunes

1 сезон

1

2 сезон

2 сезон

iTunes

1 сезон

RePack

30

Ultimate

ВАЖНО

ИГРА 18+

pack

RePack

MK11
pack

Забери бонус

RePack

jed

!!Акция!!

Alien_Rage

RePack

fifa19

RePack

Assassins Creed: Odyssey

RePack

NEED FOR SPEED™ PAYBACK

4 сезон

9 сезон

Бесстыжие 9 сезон

Все сериалы

все сериалы на PB.wtf

RePack

FAR CRY 5
  

Синдром Альцгеймера / De zaak Alzheimer (Эрик фан Лоой) [2003, боевик, триллер, драма, криминал, BDRip 1080p] VO pb.wtf

Синдром Альцгеймера через торрент pb.wtf

Размер: 11.92 GB | Добавлен: 5 лет 9 мес. назад | Торрент скачан:17 раз
Скачать  

22-02-2015 06:02 Синдром Альцгеймера Скачать торрент  

Синдром Альцгеймера / De zaak Alzheimer

Год выпуска: 2003
Страна: Нидерланды, Бельгия
Жанр: боевик, триллер, драма, криминал
Продолжительность: 01:58:18
Перевод: одноголосый закадровый
Субтитры: русские, английские

Режиссёр: Эрик фан Лоой

В ролях: Лаурин фан ден Брук, Коэн Де Боу, Дирк Роофтхоофт, Хилде дё Баардемаакер, Гейрт ван Рампелвэгх, Анне-Каролине Сюбервилле, Жан Дик, Ян Деклер, Патрик Декамп

Описание: Двум лучшим следователям поручается разобраться в пропаже важного государственного деятеля. Винки и Верстайфт приступают к расследованию, которое в скором времени выводит их на след наёмного убийцы. Этот человек, по имени Анджело Ледда, страдает синдромом Альцгеймера, вызывающим расстройство памяти. Ходят слухи, что он уже отошёл от преступных дел, ведь при его проблемах с памятью заниматься заказными убийствами практически невозможно. Но всё указывает на то, что в деле с пропажей государственного деятеля замешан именно Анджело...



Качество: BDRip 1080p
Формат: MKV
Видео кодек: H.264
Аудио кодек: AC3, DTS
Видео: 12.2 Mбит/с, 1920x824, 25 кадра/с, 0.308 bpp
Аудио 1: русский, AC3, 448 kbps, 6 ch, 48 kHz [одноголосый закадровый, ©acolith]
Аудио 2: голландский, DTS, 1509 kbps, 6 ch, 48 kHz [оригинал]
Общее
Уникальный идентификатор : 190545059123390618081599776158149109633 (0x8F59A4BD351F20408E39A62DD61DE781)
Полное имя : D:VideoSindrom Alcgejmera.2003.BDRip.1080p.mkv
Формат : Matroska
Версия формата : Version 4 / Version 2
Размер файла : 11,9 Гбайт
Продолжительность : 1 ч. 58 м.
Общий поток : 14,4 Мбит/сек
Дата кодирования : UTC 2015-02-22 03:33:41
Программа кодирования : mkvmerge v7.6.0 ('Garden of Dreams') 64bit built on Feb 8 2015 13:04:34
Библиотека кодирования : libebml v1.3.1 + libmatroska v1.4.2
_STATISTICS_WRITING_APP : mkvmerge v7.6.0 ('Garden of Dreams') 64bit built on Feb 8 2015 13:04:34
_STATISTICS_WRITING_DATE_UTC : 2015-02-22 03:33:41
_STATISTICS_TAGS : BPS DURATION NUMBER_OF_FRAMES NUMBER_OF_BYTES
DURATION : 01:58:18.347000000
NUMBER_OF_FRAMES : 665470
NUMBER_OF_BYTES : 1338926548

Видео
Идентификатор : 1
Формат : AVC
Формат/Информация : Advanced Video Codec
Профиль формата : High@L4.1
Параметр CABAC формата : Да
Параметр ReFrames формата : 4 кадра
Идентификатор кодека : V_MPEG4/ISO/AVC
Продолжительность : 1 ч. 58 м.
Битрейт : 12,2 Мбит/сек
Ширина : 1920 пикселей
Высота : 824 пикселя
Соотношение сторон : 2,35:1
Режим частоты кадров : Постоянный
Частота кадров : 25,000 кадров/сек
Цветовое пространство : YUV
Субдискретизация насыщенности : 4:2:0
Битовая глубина : 8 бит
Тип развёртки : Прогрессивная
Бит/(Пиксели*Кадры) : 0.308
Размер потока : 10,1 Гбайт (84%)
Заголовок : BDRip -- STarankov
Библиотека кодирования : x264 core 142 r2431 ac76440
Настройки программы : cabac=1 / ref=4 / deblock=1:-1:-1 / analyse=0x3:0x113 / me=umh / subme=10 / psy=1 / psy_rd=1.00:0.15 / mixed_ref=1 / me_range=32 / chroma_me=1 / trellis=2 / 8x8dct=1 / cqm=0 / deadzone=21,11 / fast_pskip=0 / chroma_qp_offset=-3 / threads=6 / lookahead_threads=1 / sliced_threads=0 / nr=0 / decimate=1 / interlaced=0 / bluray_compat=0 / constrained_intra=0 / bframes=8 / b_pyramid=2 / b_adapt=2 / b_bias=0 / direct=3 / weightb=1 / open_gop=0 / weightp=2 / keyint=240 / keyint_min=24 / scenecut=40 / intra_refresh=0 / rc_lookahead=40 / rc=crf / mbtree=0 / crf=19.0 / qcomp=0.60 / qpmin=0 / qpmax=69 / qpstep=4 / vbv_maxrate=40000 / vbv_bufsize=50000 / crf_max=0.0 / nal_hrd=none / filler=0 / ip_ratio=1.40 / pb_ratio=1.30 / aq=1:1.00
Язык : Dutch
Default : Да
Forced : Нет
DURATION : 01:58:13.720000000
NUMBER_OF_FRAMES : 177343
NUMBER_OF_BYTES : 11058350120
_STATISTICS_WRITING_APP : mkvmerge v7.6.0 ('Garden of Dreams') 64bit built on Feb 8 2015 13:04:34
_STATISTICS_WRITING_DATE_UTC : 2015-02-22 03:33:41
_STATISTICS_TAGS : BPS DURATION NUMBER_OF_FRAMES NUMBER_OF_BYTES

Аудио #1
Идентификатор : 2
Формат : AC-3
Формат/Информация : Audio Coding 3
Расширение режима : CM (complete main)
Параметр Endianness формата : Big
Идентификатор кодека : A_AC3
Продолжительность : 1 ч. 58 м.
Вид битрейта : Постоянный
Битрейт : 448 Кбит/сек
Каналы : 6 каналов
Расположение каналов : Front: L C R, Side: L R, LFE
Частота : 48,0 КГц
Битовая глубина : 16 бит
Метод сжатия : С потерями
Размер потока : 379 Мбайт (3%)
Заголовок : VO (одноголосый закадровый, ©acolith)
Язык : Russian
Default : Да
Forced : Нет

Аудио #2
Идентификатор : 3
Формат : DTS
Формат/Информация : Digital Theater Systems
Режим : 16
Параметр Endianness формата : Big
Идентификатор кодека : A_DTS
Продолжительность : 1 ч. 58 м.
Вид битрейта : Постоянный
Битрейт : 1509 Кбит/сек
Каналы : 6 каналов
Расположение каналов : Front: L C R, Side: L R, LFE
Частота : 48,0 КГц
Битовая глубина : 16 бит
Метод сжатия : С потерями
Размер потока : 1,25 Гбайт (10%)
Заголовок : Original
Язык : Dutch
Default : Нет
Forced : Нет

Текст #1
Идентификатор : 4
Формат : UTF-8
Идентификатор кодека : S_TEXT/UTF8
Идентификатор кодека/Информация : UTF-8 Plain Text
Заголовок : русский
Язык : Russian
Default : Нет
Forced : Нет

Текст #2
Идентификатор : 5
Формат : UTF-8
Идентификатор кодека : S_TEXT/UTF8
Идентификатор кодека/Информация : UTF-8 Plain Text
Заголовок : английский
Default : Нет
Forced : Нет

Меню
00:00:00.000 : :Chapter 01
pb.wtf



Скачать Синдром Альцгеймера через торрент http://i66.fastpic.ru/big/2015/0220/05/79e52f67a2d4c27b1a5d525b6349ba05.jpg Скачать фильм Синдром Альцгеймера через торрент бесплантно в хорошем качестве Описание: Двум лучшим следователям поручается разобраться в пропаже важного государственного деятеля. Винки и Верстайфт приступают к ... 10 10 3
Info! Золотая раздача, скачанное не засчитывается.
Торрент: Зарегистрирован [2015-02-22 06:02] · скачан: 17 раз
Статус: √ проверено
Размер: 11.92 GB
Как cкачать? Как скачать Синдром Альцгеймера через торрент | qTorrent

% Раздел Тема Автор DL S | L
Фильмы [HD 720p, 1080p] (Хороший звук DUB, MVO) [ 5.77 GB ] Синдром Альцгеймера / De zaak Alzheimer [2003 BDRip 720p] VO msltel Скачать
1 | 0

28-11-2019 20:33  

Отключить всю рекламу на сайте

    Дорогой пользователь! Огромная просьба, поблагодарите релизера, оцените раздачу и оставьте свои комментарий, если Вы скачали Синдром Альцгеймера через торрент бесплатно! Внесите свою лепту в развитие PiratBit!
    Комментировать посты могут только пользователи прошедшие не сложную регистрацию
    Показать сообщения:    

    Синдром Альцгеймера через торрент
    Скачать бесплатно Синдром Альцгеймера
    Синдром Альцгеймера скачать торрент
    Синдром Альцгеймера смотреть онлайн
    Cкачать фильм Синдром Альцгеймера бесплатно
    Синдром Альцгеймера скачать торрент в хорошем качестве
    Синдром Альцгеймера смотреть онлайн бесплатно в хорошем качестве


    Вы не можете начинать темы
    Вы не можете отвечать на сообщения
    Вы не можете редактировать свои сообщения
    Вы не можете удалять свои сообщения
    Вы не можете голосовать в опросах
    Вы не можете прикреплять файлы к сообщениям
    Вы можете скачивать файлы