Ссылка на приватное зеркало всего за 1$. Внимание количество ограничено!!!

iTunes

iTunes

iTunes

1

iTunes

iTunes

iTunes

iTunes

iTunes

30
pack

Новость дня

ВАЖНО

!!Акция!!

Alien_RageХит недели

RePack

Resident Evil 21

ИГРА 18+

pack

RePack

jed

!!Акция!!

Alien_Rage

RePack

fifa19

RePack

Assassins Creed: Odyssey

RePack

NEED FOR SPEED™ PAYBACK

4 сезон

9 сезон

Бесстыжие 9 сезон

Все сериалы

все сериалы на PB.wtf

RePack

FAR CRY 5
  

Личный интерес (Анатолий Григорьев) [2015 г., Мелодрама, HDTVRip 1080p] pb.wtf

Личный интерес через торрент pb.wtf

Размер: 5.25 GB | Добавлен: 5 лет 3 мес. назад | Торрент скачан:639 раз
Скачать  

23-02-2015 09:12 Личный интерес Скачать торрент  

Личный интерес
Год выпуска: 2015
Страна: Россия
Жанр: Мелодрама
Продолжительность: 01:27:57

Режиссер: Анатолий Григорьев

В ролях: Кирилл Жандаров, Галина Безрук, Алексей Нагрудный

Описание: Татьяна, совершив побег из колонии, поселяется в доме своей покойной бабушки в глухом селе Павловка. Там она встречает Максима, который приехал в деревню, чтобы отдохнуть от городской суеты. Между ними возникает взаимное чувство. Тем временем в Павловке появляется Олег — бывший жених Татьяны. Таня вынуждена рассказать Максиму всю правду о себе — о том, как она вместе с Олегом совершила ограбление, как взяла всю вину на себя и как сбежала из зоны. Максим заверяет любимую, что поможет ей и всегда будет рядом. Но не всё так просто: Максим не тот, за кого себя выдаёт…

Качество: HDTVRip 1080p
Формат: TS
Видео кодек: AVC
Аудио кодек: MPEG Audio
Видео: 1920x1080 (16:9), 25.000 fps, 7 860 Kbps (0.152 bit/pixel)
Аудио#1: 48.0 KHz, 2 ch, 256 Kbps, CBR (Russian)
Релиз от:
Общее
Идентификатор : 1 (0x1)
Полное имя : F:\Фильмы торренты\Lichnyy.interes.2014.HDTV.(1080i).MediaClub.ts
Формат : MPEG-TS
Размер файла : 5,25 Гбайт
Продолжительность : 1 ч. 27 м.
Режим общего битрейта : Переменный
Общий поток : 8541 Кбит/сек

Видео
Идентификатор : 2911 (0xB5F)
Идентификатор меню : 1009 (0x3F1)
Формат : AVC
Формат/Информация : Advanced Video Codec
Профиль формата : High@L4.0
Параметр CABAC формата : Да
Параметр ReFrames формата : 4 кадра
Идентификатор кодека : 27
Продолжительность : 1 ч. 27 м.
Битрейт : 7860 Кбит/сек
Ширина : 1920 пикселей
Высота : 1080 пикселей
Соотношение сторон : 16:9
Частота кадров : 25,000 кадров/сек
Цветовое пространство : YUV
Субдискретизация насыщенности : 4:2:0
Битовая глубина : 8 бит
Тип развёртки : MBAFF
Бит/(Пиксели*Кадры) : 0.152
Размер потока : 4,83 Гбайт (92%)

Аудио
Идентификатор : 2912 (0xB60)
Идентификатор меню : 1009 (0x3F1)
Формат : MPEG Audio
Версия формата : Version 1
Профиль формата : Layer 2
Идентификатор кодека : 3
Продолжительность : 1 ч. 27 м.
Вид битрейта : Постоянный
Битрейт : 256 Кбит/сек
Каналы : 2 канала
Частота : 48,0 КГц
Метод сжатия : С потерями
Задержка видео : -120 мс.
Размер потока : 161 Мбайт (3%)
Язык : Russian

pb.wtf



Скачать Личный интерес через торрент http://pic1.kartinco.top/images/9/559uu.jpg Скачать фильм Личный интерес через торрент бесплантно в хорошем качестве Описание: Татьяна, совершив побег из колонии, поселяется в доме своей покойной бабушки в глухом селе Павловка. Там она встречает Максима, ... 9.6 10 13
Info! Золотая раздача, скачанное не засчитывается.
Торрент: Зарегистрирован [2015-02-23 09:12] · скачан: 639 раз
Статус: √ проверено
Размер: 5.25 GB
Как cкачать? Как скачать Личный интерес через торрент | qTorrent

28-11-2019 20:33  

Отключить всю рекламу на сайте

07-04-2015 05:13 Личный интерес Скачать торрент  

Автору спасибо.
Жаль потраченного времени,на просмотр этой примитивной чуши.pb.wtf



    Дорогой пользователь! Огромная просьба, поблагодарите релизера, оцените раздачу и оставьте свои комментарий, если Вы скачали Личный интерес через торрент бесплатно! Внесите свою лепту в развитие PiratBit!
    Комментировать посты могут только пользователи прошедшие не сложную регистрацию
    Показать сообщения:    

    Личный интерес через торрент
    Скачать бесплатно Личный интерес
    Личный интерес скачать торрент
    Личный интерес смотреть онлайн
    Cкачать фильм Личный интерес бесплатно
    Личный интерес скачать торрент в хорошем качестве
    Личный интерес смотреть онлайн бесплатно в хорошем качестве


    Вы не можете начинать темы
    Вы не можете отвечать на сообщения
    Вы не можете редактировать свои сообщения
    Вы не можете удалять свои сообщения
    Вы не можете голосовать в опросах
    Вы не можете прикреплять файлы к сообщениям
    Вы можете скачивать файлы