2 сезон

iTunes

1 сезон

1

iTunes

iTunes

iTunes

1 сезон

RePack

30

ИГРА 18+

pack

ВАЖНО

!!Акция!!

Alien_RageХит недели

RePack

MK11
pack

Забери бонус

RePack

jed

!!Акция!!

Alien_Rage

RePack

fifa19

RePack

Assassins Creed: Odyssey

RePack

NEED FOR SPEED™ PAYBACK

4 сезон

9 сезон

Бесстыжие 9 сезон

Все сериалы

все сериалы на PB.wtf

RePack

FAR CRY 5
  

Судья / Cезон:1-2 / Серии: 1-8 из 8 (Виктор Конисевич) [2014-2015 г., Криминальный фильм, мелодрама, SATRip] pb.wtf

Судья через торрент pb.wtf

Размер: 4.72 GB | Добавлен: 5 лет 8 мес. назад | Торрент скачан:262 раза
Скачать  

23-02-2015 17:07 Судья Скачать торрент  

СудьяГод выпуска: 2014-2015
Страна: Россия ООО «АТОС-ФИЛЬМ» по заказу канала НТВ
Жанр: Криминальный фильм, мелодрама
Продолжительность: 8 x ~ 00:44:00

Режиссер: Виктор Конисевич
Продюссер: Юрий Осипов, Андрей Тартаков
Сценарий: Валентин Емельянов

Премьера в мире:
Премьера 1 сезона состоялась:16 февраля 2014 (НТВ)
Премьера 2 сезона состоялась: 22 февраля 2015 (НТВ) В ролях: Дмитрий Ульянов, Юрий Беляев, Нина Гогаева, Денис Карасёв, Евгений Атарик, Донатас Грудович, Алексей Янин, Александр Красовский, Макс Уральский, Татьяна Лянник, Любовь Селютина, Алексей Михайлов (II), Андрей Тартаков, Юрий Осипов, Борис Шевченко, Виталий Гумеров, Виктор Конисевич, Анатолий Бородин, Юлия Амелькина, Роберт Кемельбаев, Виталий Кищенко, Юрий Тузов, Маргарита Иванова-Донская (IV), Александр Блок, Евгений Коряковский, Даниил Воробьёв, Арсений Робак, Марина Правкина, Александр Орав, Наталья Винтилова

Описание:
1 сезон Судья Олег Левичев всегда верен своим принципам и судит по закону, а не по эмоциям. Он выносит приговор пенсионеру, убившему мужчину, который изнасиловал его дочь. Даже прокурор удивлен таким жестким решением – 8 лет колонии строгого режима за то, что отец постоял за честь своей дочери. Олег уверен, что, случись с ним такая ситуация, он ни за что не взялся бы за ружье. Вскоре он и его красавица жена едут в небольшой южный городок к ее родителям. Там они случайно встречаются с местным авторитетом Сергеем Зайцевым по прозвищу Зюзя, который держит весь город в своем подчинении. Мужчина добивался внимания Нины в юности, но тогда девушка ответила ему отказом. Но Зюзя привык получать все, что ему нужно, пусть и не сразу, а спустя 20 лет…
2 сезон Судьба сводит главного героя судью Левичева с рецидивистом Неверовым, которого Левичев арестовал 15 лет назад, когда еще был оперативником. Теперь Неверов на свободе, завязал с темным прошлым и намерен стать настоящим отцом для своей маленькой дочери. Однако ему не везет. На Левичева совершили покушение, и он чудом остался жив. А вот его жена впала в кому. Следствие обвиняет в покушении рецидивиста.Чтобы доказать свою непричастность к этому преступлению, Неверов и Левичев проводят собственное расследование, которое вскрывает целую цепочку убийств. Однако им еще предстоит найти и задержать неуловимого заказчика преступлений.

Качество: SATRip
Формат: AVI
Видео кодек: XviD
Аудио кодек: MP3
Видео: Xvid 720x448, 25fps, 1795kbps
Аудио: MP3, 48000Hz, stereo, 128kbps
Релиз от: Nicodem
Скриншоты:скриншот  скриншот  скриншот  скриншот  скриншот   скриншот  скриншот  




General
Complete name : E:\30000000\Судья (1-2 сезоны 6 серий из 8) 2014- 2015 РУ SATRip.av\Sudjya-1.01.2014.SATRip.avi
Format : AVI
Format/Info : Audio Video Interleave
File size : 614 MiB
Duration : 44mn 23s
Overall bit rate : 1 933 Kbps
Writing library : VirtualDub build 32507/release

Video
ID : 0
Format : MPEG-4 Visual
Format profile : Advanced Simple@L5
Format settings, BVOP : 2
Format settings, QPel : No
Format settings, GMC : No warppoints
Format settings, Matrix : Default (MPEG)
Codec ID : XVID
Codec ID/Hint : XviD
Duration : 44mn 23s
Bit rate : 1 796 Kbps
Width : 720 pixels
Height : 448 pixels
Display aspect ratio : 1.607
Frame rate : 25.000 fps
Color space : YUV
Chroma subsampling : 4:2:0
Bit depth : 8 bits
Scan type : Progressive
Compression mode : Lossy
Bits/(Pixel*Frame) : 0.223
Stream size : 570 MiB (93%)
Writing library : XviD 64

Audio
ID : 1
Format : MPEG Audio
Format version : Version 1
Format profile : Layer 3
Mode : Joint stereo
Codec ID : 55
Codec ID/Hint : MP3
Duration : 44mn 23s
Bit rate mode : Constant
Bit rate : 128 Kbps
Channel(s) : 2 channels
Sampling rate : 48.0 KHz
Compression mode : Lossy
Stream size : 40.6 MiB (7%)
Alignment : Split accross interleaves
Interleave, duration : 40 ms (1.00 video frame)
Interleave, preload duration : 500 ms

pb.wtf



Скачать Судья через торрент http://pic1.kartinco.top/images/9/3sauc.jpg Скачать фильм Судья через торрент бесплантно в хорошем качестве Описание: 1 сезон Судья Олег Левичев всегда верен своим принципам и судит по закону, а не по эмоциям. Он выносит приговор пенсионеру, ... 9.8 10 12
Торрент: Зарегистрирован [2015-02-23 17:07] · скачан: 262 раз
Статус: √ проверено
Размер: 4.72 GB
Как cкачать? Как скачать Судья через торрент | qTorrent

28-11-2019 20:33  

Отключить всю рекламу на сайте

    Дорогой пользователь! Огромная просьба, поблагодарите релизера, оцените раздачу и оставьте свои комментарий, если Вы скачали Судья через торрент бесплатно! Внесите свою лепту в развитие PiratBit!
    Комментировать посты могут только пользователи прошедшие не сложную регистрацию
    Показать сообщения:    

    Судья через торрент
    Скачать бесплатно Судья
    Судья скачать торрент
    Судья смотреть онлайн
    Cкачать фильм Судья бесплатно
    Судья скачать торрент в хорошем качестве
    Судья смотреть онлайн бесплатно в хорошем качестве


    Вы не можете начинать темы
    Вы не можете отвечать на сообщения
    Вы не можете редактировать свои сообщения
    Вы не можете удалять свои сообщения
    Вы не можете голосовать в опросах
    Вы не можете прикреплять файлы к сообщениям
    Вы можете скачивать файлы