Ссылка на приватное зеркало нашего сайта всего за 1$. Внимание количество ограничено!!!

2 сезон

iTunes

1 сезон

1

iTunes

iTunes

iTunes

1 сезон

RePack

30

ИГРА 18+

pack

ВАЖНО

!!Акция!!

Alien_RageХит недели

RePack

MK11
pack

Забери бонус

RePack

jed

!!Акция!!

Alien_Rage

RePack

fifa19

RePack

Assassins Creed: Odyssey

RePack

NEED FOR SPEED™ PAYBACK

4 сезон

9 сезон

Бесстыжие 9 сезон

Все сериалы

все сериалы на PB.wtf

RePack

FAR CRY 5
  

Весной расцветает любовь [01-20 из 20] (Всеволод Аравин) [2015 г., Мелодрама,SATRip ] pb.wtf

Весной расцветает любовь через торрент pb.wtf

Размер: 12.07 GB | Добавлен: 5 лет 7 мес. назад | Торрент скачан:266 раз
Скачать  

24-02-2015 07:17 Весной расцветает любовь Скачать торрент  

Весной расцветает любовь
Год выпуска: 2015
Страна: Россия
Жанр: Мелодрама
Продолжительность: ~ 00:45:00

Режиссер: Всеволод Аравин

В ролях: Дарья Егорова, Иван Жидков, Алексей Янин, Юлия Юрченко, Анна Якунина, Владимир Лысенко, Сейдулла Молдаханов, Татьяна Кречетова, Елизавета Водолазская, Алексей Медведев, Анна Леванова, Алина Кизиярова, Юрий Назаров, Евгений Мундум, Андрей Стоянов, Данила Перов, Дмитрий Гусев, Михаил Присмотров-Белов, Валентина Ананьина, Игорь Бурлаков, Евгения Любимова-Ананичева, Игорь Калина, Юрий Маслак, Михаил Мостов, Всеволод Аравин, Александр Левин (II)

Описание: Цветущая красавица с редким именем Весна — счастливая жена и мама. Ее муж Игорь занимается бизнесом и заботится о благополучии семьи, а маленький сын Сережка души не чает в родителях. Но однажды происходит трагедия, в одночасье изменившая всю жизнь Весны. После страшного нападения героиня теряет память и пропадает в чужой стране. Вскоре ее объявляют погибшей и перестают искать. Два года спустя, вернувшись домой, Весна буквально попадает в ад. Бывший муж и лучшая подруга не узнают ее, объявляют сумасшедшей и прогоняют из дома…

Качество: SATRip
Формат: AVI
Видео кодек: XviD
Аудио кодек: AC3
Видео: 720x400 (16:9), 25.000 fps, 1 800 Kbps (0.250 bit/pixel)
Аудио#1: 48.0 KHz, 2 ch, 192 Kbps, CBR
Общее
Полное имя : E:\Русс сер\Весной расцветает любовь\Vesnoy.Rastcvetet.Lyubov.SATRip\Vesnoy.Rastcvetet.Lyubov.01.SATRip.avi
Формат : AVI
Формат/Информация : Audio Video Interleave
Размер файла : 532 Мбайт
Продолжительность : 37 м.
Общий поток : 2002 Кбит/сек
Программа кодирования : VirtualDubMod 1.5.10.3 | www.virtualdub-fr.org || (build 2550/release)
Библиотека кодирования : VirtualDubMod build 2550/release

Видео
Идентификатор : 0
Формат : MPEG-4 Visual
Профиль формата : Advanced Simple@L5
Параметр BVOP формата : 2
Параметр QPel формата : Нет
Параметр GMC формата : Без точки перехода
Параметр матрицы формата : Default (H.263)
Идентификатор кодека : XVID
Идентификатор кодека/Подсказка : XviD
Продолжительность : 37 м.
Битрейт : 1800 Кбит/сек
Ширина : 720 пикселей
Высота : 400 пикселей
Соотношение сторон : 16:9
Частота кадров : 25,000 кадров/сек
Цветовое пространство : YUV
Субдискретизация насыщенности : 4:2:0
Битовая глубина : 8 бит
Тип развёртки : Прогрессивная
Метод сжатия : С потерями
Бит/(Пиксели*Кадры) : 0.250
Размер потока : 478 Мбайт (90%)
Библиотека кодирования : XviD 1.2.1 (UTC 2008-12-04)

Аудио
Идентификатор : 1
Формат : AC-3
Формат/Информация : Audio Coding 3
Расширение режима : CM (complete main)
Параметр Endianness формата : Big
Идентификатор кодека : 2000
Продолжительность : 37 м.
Вид битрейта : Постоянный
Битрейт : 192 Кбит/сек
Каналы : 2 канала
Расположение каналов : Front: L R
Частота : 48,0 КГц
Битовая глубина : 16 бит
Метод сжатия : С потерями
Размер потока : 51,0 Мбайт (10%)
Выравнивание : Разделение по промежуткам
Продолжительность промежутка : 40 мс. (1,00 видеокадр)
Время предзагрузки промежутка : 500 мс.

Внимание! Раздача ведётся путём добавления новых серий; при каждом добавлении создаётся новый торрент. Чтобы начать докачку новой серии, пользователям необходимо сделать следующее:
(1) остановить скачивание,
(2) удалить старый торрент у себя из клиента (старые серии удалять не надо),
(3) скачать новый торрент и запустить его у себя в клиенте вместо старого, при этом указать клиенту путь в старую папку куда и должно происходить скачивание новых серий.

Ваш клиент при этом должен произвести хеширование (проверку) старой папки (если не производит сам - помогите ему сделать это), и будет докачивать только те серии которых у вас ещё нет. Старые серии при этом не удаляются, а продолжают раздаваться!

Eсли вы уже удалили старые серии, то предотвратить повторную закачку старых серий можно, отжав галочку в соответствующих местах при запуске нового торрента. По возможности, желательно не удалять старые серии как можно дольше чтобы релизёр не столько продолжал раздавать старые серии, а смог сконцентрироваться на новых.
pb.wtf



Скачать Весной расцветает любовь через торрент http://pic1.kartinco.top/images/9/9im2i.jpg Скачать фильм Весной расцветает любовь [01-20 из 20] через торрент бесплантно в хорошем качестве Описание: Цветущая красавица с редким именем Весна — счастливая жена и мама. Ее муж Игорь занимается бизнесом и заботится о благополучии ... 9.2 10 17
Info! Золотая раздача, скачанное не засчитывается.
Торрент: Зарегистрирован [2015-03-05 16:26] · скачан: 266 раз
Статус: √ проверено
Размер: 12.07 GB
Как cкачать? Как скачать Весной расцветает любовь через торрент | qTorrent



Последний раз редактировалось: Assasinca (2015-03-05 16:26), всего редактировалось 7 раз(а)

28-11-2019 20:33  

Отключить всю рекламу на сайте

25-02-2015 08:03 Весной расцветает любовь Скачать торрент  

Добавлены 19-20 серииpb.wtf



    Дорогой пользователь! Огромная просьба, поблагодарите релизера, оцените раздачу и оставьте свои комментарий, если Вы скачали Весной расцветает любовь через торрент бесплатно! Внесите свою лепту в развитие PiratBit!
    Комментировать посты могут только пользователи прошедшие не сложную регистрацию
    Показать сообщения:    

    Весной расцветает любовь через торрент
    Скачать бесплатно Весной расцветает любовь
    Весной расцветает любовь скачать торрент
    Весной расцветает любовь смотреть онлайн
    Cкачать фильм Весной расцветает любовь бесплатно
    Весной расцветает любовь скачать торрент в хорошем качестве
    Весной расцветает любовь смотреть онлайн бесплатно в хорошем качестве


    Вы не можете начинать темы
    Вы не можете отвечать на сообщения
    Вы не можете редактировать свои сообщения
    Вы не можете удалять свои сообщения
    Вы не можете голосовать в опросах
    Вы не можете прикреплять файлы к сообщениям
    Вы можете скачивать файлы