Ссылка на приватное зеркало нашего сайта всего за 1$. Внимание количество ограничено!!!

2 сезон

iTunes

1 сезон

1

iTunes

iTunes

iTunes

1 сезон

RePack

30

ИГРА 18+

pack

ВАЖНО

!!Акция!!

Alien_RageХит недели

RePack

MK11
pack

Забери бонус

RePack

jed

!!Акция!!

Alien_Rage

RePack

fifa19

RePack

Assassins Creed: Odyssey

RePack

NEED FOR SPEED™ PAYBACK

4 сезон

9 сезон

Бесстыжие 9 сезон

Все сериалы

все сериалы на PB.wtf

RePack

FAR CRY 5
  

О Шмидте / About Schmidt (Александр Пэйн) [2002, драма, комедия, BDRip 1080p] MVO, DVO pb.wtf

О Шмидте через торрент pb.wtf

Размер: 11.59 GB | Добавлен: 5 лет 8 мес. назад | Торрент скачан:28 раз
Скачать  

24-02-2015 07:24 О Шмидте Скачать торрент  

О Шмидте / About Schmidt

Год выпуска: 2002
Страна: США
Жанр: драма, комедия
Продолжительность: 02:05:26
Перевод: профессиональный многоголосый, профессиональный двухголосый
Субтитры: русские, английские

Режиссёр: Александр Пэйн

В ролях: Джек Николсон, Кэти Бэйтс, Хоуп Дэвис, Дермот Малруни, Ховард Хессеман, Конни Рэй, Лен Кариу, Шерил Хамада, Фил Ривз, Мэтт Уинстон, Джеймс М. Коннор, Джилл Андерсон, Вон Вензел, Джудит Кэтрин Харт, Мелисса Ханна, Танг Ха, Джеймс Дж. Кроули, Мэри Бет Нельсон, Стив Хеллер, Томас Майкл Белфорд, МакКенна Гибсон, Эмили МакНотон

Описание: История Уоррена Шмидта, работавшего в страховой компании. После ухода на покой, он начинает переосмысливать прожитую жизнь, пытаясь понять, смог ли он достичь всех своих мечтаний в карьере, браке и семейной жизни. Дочь Уоррена почти не общается с ним, живёт в Денвере и собирается выйти замуж за человека, которого он не одобряет. Что же делать? Шмидт отправляется в поездку через всю страну, чтобы остановить эту свадьбу, а заодно и найти смысл своей собственной жизни... Фильм основан на одноимённом романе Луиса Бегли 1996 года.



Качество: BDRip 1080p
Формат: MKV
Видео кодек: H.264
Аудио кодек: AC3, DTS
Видео: 10.8 Mбит/с, 1920x1080, 23.976 кадра/с, 0.218 bpp
Аудио 1: русский, AC3, 448 kbps, 6 ch, 48 kHz [профессиональный многоголосый]
Аудио 2: русский, AC3, 192 kbps, 2 ch, 48 kHz [профессиональный двухголосый]
Аудио 3: английский, DTS, 1509 kbps, 6 ch, 48 kHz [оригинал]

Имеются неименованные главы/чаптеры.
Оскар, 2003 год
Номинации (2):
Лучшая мужская роль (Джек Николсон)
Лучшая женская роль второго плана (Кэти Бейтс)

Золотой глобус, 2003 год
Победитель (2):
Лучшая мужская роль (драма) (Джек Николсон)
Лучший сценарий

Номинации (3):
Лучший фильм (драма)
Лучшая женская роль второго плана (Кэти Бейтс)
Лучший режиссер (Александр Пэйн)

Британская академия, 2003 год
Номинации (1):
Лучшая мужская роль (Джек Николсон)

Премия Гильдии актеров, 2003 год
Номинации (2):
Лучшая мужская роль (Джек Николсон)
Лучшая женская роль второго плана (Кэти Бейтс)

Каннский кинофестиваль, 2002 год
Номинации (1):
Золотая пальмовая ветвь
frame I:1108 Avg QP:14.92 size:197290
frame P:42377 Avg QP:16.36 size:107377
frame B:136953 Avg QP:17.90 size: 41274

Общее
Уникальный идентификатор : 228144574239631431476748329119574734930 (0xABA30BF5B1EC068BBB6F093B8FA53852)
Полное имя : D:VideoO Shmidte.2002.BDRip.1080p.mkv
Формат : Matroska
Версия формата : Version 4 / Version 2
Размер файла : 11,6 Гбайт
Продолжительность : 2 ч. 5 м.
Общий поток : 13,2 Мбит/сек
Дата кодирования : UTC 2015-02-24 03:31:22
Программа кодирования : mkvmerge v7.6.0 ('Garden of Dreams') 64bit built on Feb 8 2015 13:04:34
Библиотека кодирования : libebml v1.3.1 + libmatroska v1.4.2
_STATISTICS_WRITING_APP : mkvmerge v7.6.0 ('Garden of Dreams') 64bit built on Feb 8 2015 13:04:34
_STATISTICS_WRITING_DATE_UTC : 2015-02-24 03:31:22
_STATISTICS_TAGS : BPS DURATION NUMBER_OF_FRAMES NUMBER_OF_BYTES
DURATION : 02:05:26.731000000
NUMBER_OF_FRAMES : 705631
NUMBER_OF_BYTES : 1419730572

Видео
Идентификатор : 1
Формат : AVC
Формат/Информация : Advanced Video Codec
Профиль формата : High@L4.1
Параметр CABAC формата : Да
Параметр ReFrames формата : 4 кадра
Идентификатор кодека : V_MPEG4/ISO/AVC
Продолжительность : 2 ч. 5 м.
Битрейт : 10,8 Мбит/сек
Ширина : 1920 пикселей
Высота : 1080 пикселей
Соотношение сторон : 16:9
Режим частоты кадров : Постоянный
Частота кадров : 23,976 кадра/сек
Цветовое пространство : YUV
Субдискретизация насыщенности : 4:2:0
Битовая глубина : 8 бит
Тип развёртки : Прогрессивная
Бит/(Пиксели*Кадры) : 0.218
Размер потока : 9,48 Гбайт (82%)
Заголовок : BDRip -- STarankov
Библиотека кодирования : x264 core 142 r2431 ac76440
Настройки программы : cabac=1 / ref=4 / deblock=1:-1:-1 / analyse=0x3:0x113 / me=umh / subme=9 / psy=1 / psy_rd=1.00:0.15 / mixed_ref=1 / me_range=32 / chroma_me=1 / trellis=2 / 8x8dct=1 / cqm=0 / deadzone=21,11 / fast_pskip=1 / chroma_qp_offset=-3 / threads=6 / lookahead_threads=1 / sliced_threads=0 / nr=0 / decimate=1 / interlaced=0 / bluray_compat=0 / constrained_intra=0 / bframes=8 / b_pyramid=2 / b_adapt=2 / b_bias=0 / direct=3 / weightb=1 / open_gop=0 / weightp=2 / keyint=230 / keyint_min=23 / scenecut=40 / intra_refresh=0 / rc_lookahead=40 / rc=crf / mbtree=0 / crf=18.5 / qcomp=0.60 / qpmin=0 / qpmax=69 / qpstep=4 / vbv_maxrate=40000 / vbv_bufsize=50000 / crf_max=0.0 / nal_hrd=none / filler=0 / ip_ratio=1.40 / pb_ratio=1.30 / aq=1:1.00
Язык : English
Default : Да
Forced : Нет
DURATION : 02:05:25.769000000
NUMBER_OF_FRAMES : 180438
NUMBER_OF_BYTES : 10421477020
_STATISTICS_WRITING_APP : mkvmerge v7.6.0 ('Garden of Dreams') 64bit built on Feb 8 2015 13:04:34
_STATISTICS_WRITING_DATE_UTC : 2015-02-24 03:31:22
_STATISTICS_TAGS : BPS DURATION NUMBER_OF_FRAMES NUMBER_OF_BYTES

Аудио #1
Идентификатор : 2
Формат : AC-3
Формат/Информация : Audio Coding 3
Расширение режима : CM (complete main)
Параметр Endianness формата : Big
Идентификатор кодека : A_AC3
Продолжительность : 2 ч. 5 м.
Вид битрейта : Постоянный
Битрейт : 448 Кбит/сек
Каналы : 6 каналов
Расположение каналов : Front: L C R, Side: L R, LFE
Частота : 48,0 КГц
Битовая глубина : 16 бит
Метод сжатия : С потерями
Размер потока : 402 Мбайт (3%)
Заголовок : MVO
Язык : Russian
Default : Да
Forced : Нет

Аудио #2
Идентификатор : 3
Формат : AC-3
Формат/Информация : Audio Coding 3
Расширение режима : CM (complete main)
Параметр Endianness формата : Big
Идентификатор кодека : A_AC3
Продолжительность : 2 ч. 5 м.
Вид битрейта : Постоянный
Битрейт : 192 Кбит/сек
Каналы : 2 канала
Расположение каналов : Front: L R
Частота : 48,0 КГц
Битовая глубина : 16 бит
Метод сжатия : С потерями
Размер потока : 172 Мбайт (1%)
Заголовок : DVO
Язык : Russian
Default : Нет
Forced : Нет

Аудио #3
Идентификатор : 4
Формат : DTS
Формат/Информация : Digital Theater Systems
Режим : 16
Параметр Endianness формата : Big
Идентификатор кодека : A_DTS
Продолжительность : 2 ч. 5 м.
Вид битрейта : Постоянный
Битрейт : 1509 Кбит/сек
Каналы : 6 каналов
Расположение каналов : Front: L C R, Side: L R, LFE
Частота : 48,0 КГц
Битовая глубина : 24 бит
Метод сжатия : С потерями
Размер потока : 1,32 Гбайт (11%)
Заголовок : Original
Язык : English
Default : Нет
Forced : Нет

Текст #1
Идентификатор : 5
Формат : UTF-8
Идентификатор кодека : S_TEXT/UTF8
Идентификатор кодека/Информация : UTF-8 Plain Text
Заголовок : русский
Язык : Russian
Default : Нет
Forced : Нет

Текст #2
Идентификатор : 6
Формат : UTF-8
Идентификатор кодека : S_TEXT/UTF8
Идентификатор кодека/Информация : UTF-8 Plain Text
Заголовок : английский
Default : Нет
Forced : Нет

Меню
00:00:00.000 : :Chapter 01
00:10:21.619 : :Chapter 02
00:19:56.194 : :Chapter 03
00:29:35.773 : :Chapter 04
00:40:05.986 : :Chapter 05
00:50:13.760 : :Chapter 06
01:00:49.228 : :Chapter 07
01:10:38.817 : :Chapter 08
01:19:10.954 : :Chapter 09
01:31:14.719 : :Chapter 10
01:39:11.487 : :Chapter 11
01:53:50.323 : :Chapter 12
02:00:21.047 : :Chapter 13
02:05:25.518 : :Chapter 14
pb.wtf



Скачать О Шмидте через торрент http://i68.fastpic.ru/big/2015/0223/4b/b5272fdb0d6da072be1fadaa0a2c6e4b.jpg Скачать фильм О Шмидте через торрент бесплантно в хорошем качестве Описание: История Уоррена Шмидта, работавшего в страховой компании. После ухода на покой, он начинает переосмысливать прожитую жизнь, ... 10 10 4
Торрент: Зарегистрирован [2015-02-24 07:24] · скачан: 28 раз
Статус: √ проверено
Размер: 11.59 GB
Как cкачать? Как скачать О Шмидте через торрент | qTorrent

% Раздел Тема Автор DL S | L
Фильмы до 2000 г. [ 2.92 GB ] О Шмидте / About Schmidt [2002 BDRip-AVC] MVO DVO msltel Скачать
1 | 0
Фильмы [HD 720p, 1080p] (Хороший звук DUB, MVO) [ 5.23 GB ] О Шмидте / About Schmidt [2002 BDRip 720p] MVO DVO msltel Скачать
1 | 0

28-11-2019 20:33  

Отключить всю рекламу на сайте

24-02-2015 08:49 О Шмидте Скачать торрент  

Один из самых лучших фильмов в области геронтологии!!!!!pb.wtf



    Дорогой пользователь! Огромная просьба, поблагодарите релизера, оцените раздачу и оставьте свои комментарий, если Вы скачали О Шмидте через торрент бесплатно! Внесите свою лепту в развитие PiratBit!
    Комментировать посты могут только пользователи прошедшие не сложную регистрацию
    Показать сообщения:    

    О Шмидте через торрент
    Скачать бесплатно О Шмидте
    О Шмидте скачать торрент
    О Шмидте смотреть онлайн
    Cкачать фильм О Шмидте бесплатно
    О Шмидте скачать торрент в хорошем качестве
    О Шмидте смотреть онлайн бесплатно в хорошем качестве


    Вы не можете начинать темы
    Вы не можете отвечать на сообщения
    Вы не можете редактировать свои сообщения
    Вы не можете удалять свои сообщения
    Вы не можете голосовать в опросах
    Вы не можете прикреплять файлы к сообщениям
    Вы можете скачивать файлы