Ссылка на приватное зеркало нашего сайта всего за 1$. Внимание количество ограничено!!!

2 сезон

iTunes

1 сезон

1

iTunes

iTunes

iTunes

1 сезон

RePack

30

ИГРА 18+

pack

ВАЖНО

!!Акция!!

Alien_RageХит недели

RePack

MK11
pack

Забери бонус

RePack

jed

!!Акция!!

Alien_Rage

RePack

fifa19

RePack

Assassins Creed: Odyssey

RePack

NEED FOR SPEED™ PAYBACK

4 сезон

9 сезон

Бесстыжие 9 сезон

Все сериалы

все сериалы на PB.wtf

RePack

FAR CRY 5
  

Синяя комната / La chambre bleue (Матьё Амальрик / Mathieu Amalric) [2014, Франция, триллер, криминал, DVDRip, Любительский (одноголосый)] pb.wtf

Синяя комната через торрент pb.wtf

Размер: 1.36 GB | Добавлен: 5 лет 8 мес. назад | Торрент скачан:199 раз
Скачать  

24-02-2015 21:52 Синяя комната Скачать торрент  

Синяя комната / La chambre bleue

Год выпуска: 2014
Страна: Франция
Жанр: триллер, криминал
Продолжительность: 01:12:02
Перевод: Любительский (одноголосый)
Субтитры: Отсутствует
Режиссер: Матьё Амальрик / Mathieu Amalric
В ролях:


Матьё Амальрик (Julien Gahyde), Лея Дрюкер (Delphine Gahyde), Стефани Клео (Esther Despierre), Лоран Пуатрено (Le juge d'instruction), Серж Бозон (Le gendarme), Блатч (Le psychologue), Mona Jaffart (Suzanne Gahyde), Вероника Ален (La mère de Nicolas), Paul Kramer (L'avocat de Julien), Alain Fraitag (L'avocat d'Esther), Christelle Pichon (La greffière du juge), Мустафа Абурашид (Le brigadier)

Описание:
Тайно влюбленные мужчина и женщина остаются одни в комнате. Они желают друг друга и проявляют взаимную нежность. Мужчине кажется, что между ними ничего не было. Теперь мужчина оказывается под следствием. Но в чем его обвиняют?

Рейтинг:

MPAA: R - Лицам до 17 лет обязательно присутствие взрослого
Качество: DVDRip
Формат: AVI
Видео кодек:XviD
Аудио кодек:AC3
Видео: XviD, 720x528 (4:3), 2017 kbps, 25 fps, 0,212 bpp
Аудио №1: AC3 / 2.0 / 48 kHz / 192 kbps / 16 bit - Любительский (одноголосый) [PashaUp] по субтитрам Janetta
Аудио №2: AC3 / 5.1 / 48 kHz / 384 kbps / 16 bit - (оригинал)


General
Complete name : D:\_uTorrent_\La.Chambre.Bleue_2014.DVDRip.avi
Format : AVI
Format/Info : Audio Video Interleave
File size : 1.36 GiB
Duration : 1h 12mn
Overall bit rate : 2 712 Kbps
Writing application : VirtualDubMod 1.5.10.3 | www.virtualdub-fr.org || (build 2550/release)
Writing library : VirtualDubMod build 2550/release

Video
ID : 0
Format : MPEG-4 Visual
Format profile : Advanced Simple@L5
Format settings, BVOP : 2
Format settings, QPel : No
Format settings, GMC : No warppoints
Format settings, Matrix : Default (MPEG)
Codec ID : XVID
Codec ID/Hint : XviD
Duration : 1h 12mn
Bit rate : 2 018 Kbps
Width : 720 pixels
Height : 528 pixels
Display aspect ratio : 4:3
Frame rate : 25.000 fps
Color space : YUV
Chroma subsampling : 4:2:0
Bit depth : 8 bits
Scan type : Progressive
Compression mode : Lossy
Bits/(Pixel*Frame) : 0.212
Stream size : 1.02 GiB (74%)
Writing library : XviD 1.2.1 (UTC 2008-12-04)

Audio #1
ID : 1
Format : AC-3
Format/Info : Audio Coding 3
Mode extension : CM (complete main)
Codec ID : 2000
Duration : 1h 12mn
Bit rate mode : Constant
Bit rate : 192 Kbps
Channel(s) : 2 channels
Channel positions : Front: L R
Sampling rate : 48.0 KHz
Bit depth : 16 bits
Compression mode : Lossy
Stream size : 98.9 MiB (7%)
Alignment : Split accross interleaves

Audio #2
ID : 2
Format : AC-3
Format/Info : Audio Coding 3
Mode extension : CM (complete main)
Codec ID : 2000
Duration : 1h 12mn
Bit rate mode : Constant
Bit rate : 384 Kbps
Channel(s) : 6 channels
Channel positions : Front: L C R, Side: L R, LFE
Sampling rate : 48.0 KHz
Bit depth : 16 bits
Compression mode : Lossy
Stream size : 198 MiB (14%)
Alignment : Split accross interleaves

[/code]
pb.wtf



Скачать Синяя комната через торрент http://i63.fastpic.ru/big/2015/0225/0d/a56f4774bfff515d58a744576092cd0d.png Скачать фильм Синяя комната через торрент бесплантно в хорошем качестве Описание: Тайно влюбленные мужчина и женщина остаются одни в комнате. Они желают друг друга и проявляют взаимную нежность. Мужчине кажется, ... 8.2 10 5
Торрент: Зарегистрирован [2015-02-24 21:52] · скачан: 199 раз
Статус: T временная
Размер: 1.36 GB
Как cкачать? Как скачать Синяя комната через торрент | qTorrent

28-11-2019 20:33  

Отключить всю рекламу на сайте

25-02-2015 20:35 Синяя комната Скачать торрент  

Описание похоже переводили с английского автоматически в гугле?pb.wtf



    Дорогой пользователь! Огромная просьба, поблагодарите релизера, оцените раздачу и оставьте свои комментарий, если Вы скачали Синяя комната через торрент бесплатно! Внесите свою лепту в развитие PiratBit!
    Комментировать посты могут только пользователи прошедшие не сложную регистрацию
    Показать сообщения:    

    Синяя комната через торрент
    Скачать бесплатно Синяя комната
    Синяя комната скачать торрент
    Синяя комната смотреть онлайн
    Cкачать фильм Синяя комната бесплатно
    Синяя комната скачать торрент в хорошем качестве
    Синяя комната смотреть онлайн бесплатно в хорошем качестве


    Вы не можете начинать темы
    Вы не можете отвечать на сообщения
    Вы не можете редактировать свои сообщения
    Вы не можете удалять свои сообщения
    Вы не можете голосовать в опросах
    Вы не можете прикреплять файлы к сообщениям
    Вы можете скачивать файлы