Достать ножи: Стеклянная луковица

MVO

Добыча

Дубляж

Уэнсдэй

1 сезон

Тор

Дубляж

13 клиническая

1 сезон

Жестокая ночь

MVO

Одни из нас

1 сезон

Deluxe

pack

Рекомендуем

30

Пиратка

ВАЖНО

ВАЖНО

Ghostwire

Пиратка

jed

RePack

nioh2

RePack

RDR2

RePack

NEED FOR SPEED™ PAYBACK

RePack

скачать торрент

Кинопоиск HD

Острые козырьки 6 сезон

6 сезон

FAR CRY 6

RePack

скачать торрент

Лицензия

скачать торрент

MVO

1

1 сезон

скачать торрент

1 сезон

скачать торрент

Лицензия

  

Ночь в музее: Секрет гробницы / Night at the Museum: Secret of the Tomb (Шон Леви / Shawn Levy) [2014, США, Великобритания, фэнтези, комедия, приключения, HDRip, Дубляж - Лицензия / iTunes]

Ночь в музее: Секрет гробницы через торрент pb.wtf

Размер: 1.37 GB | Добавлен: 7 лет 10 мес. назад | Торрент скачан:2271 раз
Смотреть онлайн | Скачать | Поддержите нас   

24-02-2015 23:46 Ночь в музее: Секрет гробницы Скачать торрент  

Ночь в музее: Секрет гробницы / Night at the Museum: Secret of the Tomb«Эта ночь изменит всё»
Год выпуска: 2014
Страна: США, Великобритания
Жанр: фэнтези, комедия, приключения, семейный
Продолжительность: 01:37:48
Перевод: Дубляж - [Лицензия / iTunes]
Субтитры: Отсутствует
Режиссер: Шон Леви / Shawn Levy
В ролях:


Бен Стиллер (Larry Daley / Laaa), Робин Уильямс (Teddy Roosevelt / Garuda), Оуэн Уилсон (Jedediah), Стив Куган (Octavius), Рики Джервэйс (Dr. McPhee), Дэн Стивенс (Sir Lancelot), Ребел Уилсон (Tilly), Скайлер Джизондо (Nick Daley), Рами Малек (Ahkmenrah), Патрик Галлахер (Attila the Hun), Мицуо Пек (Sacajawea), Бен Кингсли (Merenkahre)

Описание:
Ночной сторож Музея естественной истории в Нью-Йорке Ларри Дэйли в отчаянии: его друзья-экспонаты начинают странно себя вести, а всё потому, что оживляющая их древнеегипетская золотая пластина разрушается. Только отец фараона Ахкменра знает тайну магического артефакта, но вот беда - его мумия далеко, она выставлена в Британском музее естествознания! Команда любимых героев предпринимает беспрецедентное путешествие в Лондон. Они должны объединиться с британскими экспонатами и рискнуть всем, чтобы восстановить золотую пластину до того, как Ларри потеряет своих друзей навсегда.

Рейтинг:
Бюджет:$127 000 000
MPAA: PG - Рекомендуется присутствие родителей
Качество: HDRip
Формат: AVI
Видео кодек:XviD
Аудио кодек:AC3
Видео: XviD, 720x384 (1.875), 1528 kbps, 23,976 fps, 0,231 bpp
Аудио: AC3 / 5.1 / 48 kHz / 384 kbps / 16 bit - Дубляж - [Лицензия / iTunes]
Торрент обновлен просьба перекачать торрент файл!
Общее
Полное имя : D:\_uTorrent_\Noch.v.muzee.3.2014.BDRip.Rus-C!v.avi
Формат : AVI
Формат/Информация : Audio Video Interleave
Размер файла : 1,37 Гбайт
Продолжительность : 1 ч. 37 м.
Общий поток : 2000 Кбит/сек
Программа кодирования : VirtualDubMod 1.5.10.2 (build 2540/release)
Библиотека кодирования : VirtualDubMod build 2540/release

Видео
Идентификатор : 0
Формат : MPEG-4 Visual
Профиль формата : Advanced [email protected]
Параметр BVOP формата : 2
Параметр QPel формата : Нет
Параметр GMC формата : Без точки перехода
Параметр матрицы формата : Default (H.263)
Идентификатор кодека : XVID
Идентификатор кодека/Подсказка : XviD
Продолжительность : 1 ч. 37 м.
Битрейт : 1528 Кбит/сек
Ширина : 720 пикселей
Высота : 384 пикселя
Соотношение сторон : 1,85:1
Частота кадров : 23,976 кадра/сек
Цветовое пространство : YUV
Субдискретизация насыщенности : 4:2:0
Битовая глубина : 8 бит
Тип развёртки : Прогрессивная
Метод сжатия : С потерями
Бит/(Пиксели*Кадры) : 0.231
Размер потока : 1,04 Гбайт (76%)
Библиотека кодирования : XviD 1.2.1 (UTC 2008-12-04)

Аудио
Идентификатор : 1
Формат : AC-3
Формат/Информация : Audio Coding 3
Расширение режима : CM (complete main)
Параметр Endianness формата : Big
Идентификатор кодека : 2000
Продолжительность : 1 ч. 37 м.
Вид битрейта : Постоянный
Битрейт : 384 Кбит/сек
Каналы : 6 каналов
Расположение каналов : Front: L C R, Side: L R, LFE
Частота : 48,0 КГц
Битовая глубина : 16 бит
Метод сжатия : С потерями
Размер потока : 269 Мбайт (19%)
Выравнивание : Разделение по промежуткам
[/code]



Скачать Ночь в музее: Секрет гробницы через торрент http://i65.fastpic.ru/big/2015/0225/fe/87e32d9d4d849c1c3ddf0ba56ef2b8fe.png Скачать, смотреть онлайн Ночь в музее: Секрет гробницы бесплантно в хорошем качестве Описание: Ночной сторож Музея естественной истории в Нью-Йорке Ларри Дэйли в отчаянии: его друзья-экспонаты начинают странно себя вести, а ... 9.8 10 65
Торрент: Зарегистрирован [2015-03-02 20:22] · скачан: 2 271 раз
Статус: √ проверено
Размер: 1.37 GB
Как cкачать? Как скачать Ночь в музее: Секрет гробницы через торрент | UTorrent

% Раздел Тема Автор DL S | L
Фильмы [HD 720p, 1080p] (Хороший звук DUB, MVO) [ 11.17 GB ] Ночь в музее: Секрет гробницы / Night at the Museum: Secret of the Tomb | | 1080p Seedtank Скачать
1 | 0
Фильмы 2014 [DVDrip, WEB-DLRip, HDrip] [ 1.42 GB ] Ночь в музее: Секрет гробницы / Night at the Museum: Secret of the Tomb | iTunes От R.G. PiratFilms | HDRip-AVC, White Smoke Скачать
1 | 0
Фильмы [HD 720p, 1080p] (Хороший звук DUB, MVO) [ 7.75 GB ] Ночь в музее: Секрет гробницы / Night at the Museum: Secret of the Tomb | DUB | 1080p _denis_100 Скачать
1 | 0
Трейлеры и дополнительные материалы к фильмам [ 35 MB ] Ночь в музее: Секрет гробницы / Night at the Museum: Secret of the Tomb | Дубляж | HDRip, Дубляж GEKADOL Скачать
1 | 0

28-11-2019 20:33  


Отключить вcю реклaмy на сайте, в т.ч. и в плеере онлайн просмотра!

03-03-2015 11:02 Ночь в музее: Секрет гробницы Скачать торрент  

ФАЙЛ НЕ ВОСПРОИЗВОДИТСЯ!! ОШИБКА mpc и Windows Media



03-03-2015 18:11 Ночь в музее: Секрет гробницы Скачать торрент  

Rinat-sb писал(а):

ФАЙЛ НЕ ВОСПРОИЗВОДИТСЯ!! ОШИБКА mpc и Windows Media

доп. кодеки скачай



    Дорогой пользователь! Огромная просьба, поблагодарите релизера, оцените раздачу и оставьте свои комментарий, если Вы скачали Ночь в музее: Секрет гробницы через торрент бесплатно!!
    Комментировать посты могут только пользователи прошедшие не сложную регистрацию
    Показать сообщения:    


    Ночь в музее: Секрет гробницы через торрент
    Скачать бесплатно Ночь в музее: Секрет гробницы
    Ночь в музее: Секрет гробницы скачать торрент
    Ночь в музее: Секрет гробницы смотреть онлайн
    Cкачать фильм Ночь в музее: Секрет гробницы бесплатно
    Ночь в музее: Секрет гробницы скачать торрент в хорошем качестве
    Ночь в музее: Секрет гробницы смотреть онлайн бесплатно в хорошем качестве
    Вы не можете начинать темы
    Вы не можете отвечать на сообщения
    Вы не можете редактировать свои сообщения
    Вы не можете удалять свои сообщения
    Вы не можете голосовать в опросах
    Вы не можете прикреплять файлы к сообщениям
    Вы можете скачивать файлы
    Ночь в музее: Секрет гробницы / Night at the Museum: Secret of the Tomb [2014, США, Великобритания, фэнтези, комедия, приключения, HDRip, Дубляж - Лицензия / iTunes] смотреть онлайн, скачать торрент picoco.icu