Ссылка на приватное зеркало нашего сайта всего за 1$. Внимание количество ограничено!!!

2 сезон

iTunes

1 сезон

1

iTunes

iTunes

iTunes

1 сезон

RePack

30

ИГРА 18+

pack

ВАЖНО

!!Акция!!

Alien_RageХит недели

RePack

MK11
pack

Забери бонус

RePack

jed

!!Акция!!

Alien_Rage

RePack

fifa19

RePack

Assassins Creed: Odyssey

RePack

NEED FOR SPEED™ PAYBACK

4 сезон

9 сезон

Бесстыжие 9 сезон

Все сериалы

все сериалы на PB.wtf

RePack

FAR CRY 5
  

Алхимик (1-12 серия из 12) (Эликсир Фауста) (Александр Муратов (II)) [2015 г., Детектив, мелодрама, мистика, SATRip] pb.wtf

Алхимик через торрент pb.wtf

Размер: 6.99 GB | Добавлен: 5 лет 7 мес. назад | Торрент скачан:645 раз
Скачать  

25-02-2015 08:37 Алхимик Скачать торрент  

Алхимик (Эликсир Фауста)
Год выпуска: 2015
Страна: Россия
Жанр: Детектив, мелодрама, мистика
Продолжительность: ~ 00:52:00

Режиссер: Александр Муратов (II)

В ролях: Игорь Петренко, Светлана Иванова, Виктор Раков, Евгения Добровольская, Юлия Рутберг, Павел Баршак, Фёдор Лавров, Владимир Ерёмин, Сергей Степанченко, Игорь Ясулович, Юрий Беляев, Андрей Ильин, Борис Щербаков, Артём Ткаченко, Владимир Коренев, Павел Меленчук, Александр Сирин, Елена Радевич, Татьяна Абрамова, Алексей Шейнин, Вячеслав Жолобов, Артём Фадеев, Владимир Гостюхин, Кирилл Жандаров

Описание: Сериал «Алхимик» рассказывает о самых известных – и в то же время самых таинственных экспериментаторах всех времен – алхимиках. Используя познания в органической химии, свойствах известных минералов и особую энергетику мистических элементов, они из года в год пытались приготовить эликсир бессмертия и научиться превращать в золото любой металл.

Качество: SATRip
Формат: AVI
Видео кодек: XviD
Аудио кодек: AC-3
Видео: 720x384 (1.875), 25.000 fps, 1 387 Kbps (0.201 bit/pixel)
Аудио#1: 48.0 KHz, 2 ch, 192 Kbps, CBR
Реклама отсутствует!
Общее
Полное имя : E:\Русс сер\Алхимик\Alximik.2015.SATRip.Files-x\01.Alximik.2015.SATRip.Files-x.avi
Формат : AVI
Формат/Информация : Audio Video Interleave
Размер файла : 600 Мбайт
Продолжительность : 52 м.
Общий поток : 1589 Кбит/сек
Программа кодирования : VirtualDubModRus 1.5.10.2 (build 2542/release)
Библиотека кодирования : VirtualDubMod build 2542/release

Видео
Идентификатор : 0
Формат : MPEG-4 Visual
Профиль формата : Advanced Simple@L5
Параметр BVOP формата : 1
Параметр QPel формата : Нет
Параметр GMC формата : Без точки перехода
Параметр матрицы формата : Выборочная
Идентификатор кодека : XVID
Идентификатор кодека/Подсказка : XviD
Продолжительность : 52 м.
Битрейт : 1387 Кбит/сек
Ширина : 720 пикселей
Высота : 384 пикселя
Соотношение сторон : 1,85:1
Частота кадров : 25,000 кадров/сек
Цветовое пространство : YUV
Субдискретизация насыщенности : 4:2:0
Битовая глубина : 8 бит
Тип развёртки : Прогрессивная
Метод сжатия : С потерями
Бит/(Пиксели*Кадры) : 0.201
Размер потока : 524 Мбайт (87%)
Библиотека кодирования : XviD 73

Аудио
Идентификатор : 1
Формат : AC-3
Формат/Информация : Audio Coding 3
Расширение режима : CM (complete main)
Параметр Endianness формата : Big
Идентификатор кодека : 2000
Продолжительность : 52 м.
Вид битрейта : Постоянный
Битрейт : 192 Кбит/сек
Каналы : 2 канала
Расположение каналов : Front: L R
Частота : 48,0 КГц
Битовая глубина : 16 бит
Метод сжатия : С потерями
Размер потока : 72,6 Мбайт (12%)
Выравнивание : Разделение по промежуткам
Продолжительность промежутка : 40 мс. (1,00 видеокадр)
Время предзагрузки промежутка : 500 мс.

Внимание! Раздача ведётся путём добавления новых выпусков; при каждом добавлении создаётся новый торрент. Чтобы начать докачку нового выпуска, пользователям необходимо сделать следующее:
(1) остановить скачивание,
(2) удалить старый торрент у себя из клиента (старые серии удалять не надо),
(3) скачать новый торрент и запустить его у себя в клиенте вместо старого, при этом указать клиенту путь в старую папку куда и должно происходить скачивание новых выпусков.
Ваш клиент при этом должен произвести хеширование (проверку) старой папки (если не производит сам - помогите ему сделать это). В результате он будет докачивать только те выпуски, которых у Вас ещё нет. Старые выпуски при этом не удаляются, а продолжают раздаваться!
Eсли Вы уже удалили старые выпуски, то предотвратить их повторную закачку можно, сняв галочки в соответствующих местах при запуске нового торрента. По возможности, желательно не удалять старые выпуски как можно дольше, чтобы релизёр не только продолжал раздавать старые выпуски, но и смог сконцентрироваться на новых.
pb.wtf



Скачать Алхимик через торрент http://pic1.kartinco.top/images/10/fqkxn.jpg Скачать фильм Алхимик через торрент бесплантно в хорошем качестве Описание: Сериал «Алхимик» рассказывает о самых известных – и в то же время самых таинственных экспериментаторах всех времен – алхимиках. ... 9.6 10 29
Info! Золотая раздача, скачанное не засчитывается.
Торрент: Зарегистрирован [2015-03-05 07:19] · скачан: 645 раз
Статус: √ проверено
Размер: 6.99 GB
Как cкачать? Как скачать Алхимик через торрент | qTorrent

% Раздел Тема Автор DL S | L
Фантастика [ 457 MB ] Юрий Корчевский - Последний алхимик [Борис Клейнберг 2020 96 kbps MP3] bober100 Скачать
3 | 0
Азиатские фильмы [ 2.08 GB ] Стальной алхимик / Hagane no renkinjutsushi / Fullmetal Alchemist [2017 BDRip-AVC] MVO [AlexFilm] bober100 Скачать
2 | 0
Ultra HD (UHD: 2K, 4K, 8K) — видео сверхвысокой чёткости [ 76.67 GB ] Стальной алхимик / Hagane no renkinjutsushi / Fullmetal Alchemist [2017 UHD BDRemux 2160p] 2xMVO [AlexFilm AniDUB] +VO [PiratVoice] bober100 Скачать
1 | 0
Наши сериалы [ 8.69 GB ] Алхимик. Эликсир Фауста / Сезон: 1 / Серии: 1-12 из 12 [2015 HDTVRip] bober100 Скачать
1 | 0
Наши сериалы [ 28.28 GB ] Алхимик. Эликсир Фауста / Сезон: 1 / Серии: 1-12 из 12 [2015 HDTV 1080i] bober100 Скачать
1 | 0
Наши сериалы [ 16.04 GB ] Алхимик. Эликсир Фауста / Сезон: 1 / Серии: 1-12 из 12 [2015 HDTVRip 720p] bober100 Скачать
1 | 0
Наши сериалы [ 7.84 GB ] Алхимик. Эликсир Фауста / Сезон: 1 / Серии: 1-12 из 12 [2015 SATRip-AVC] bober100 Скачать
1 | 0


Последний раз редактировалось: Assasinca (2015-03-05 06:49), всего редактировалось 6 раз(а)

28-11-2019 20:33  

Отключить всю рекламу на сайте

26-02-2015 07:50 Алхимик Скачать торрент  

добавлены 11-12 серии Финалpb.wtf





Последний раз редактировалось: Assasinca (2015-03-05 06:48), всего редактировалось 3 раз(а)

01-03-2015 15:07 Алхимик Скачать торрент  

А когда следующие?pb.wtf



19-05-2015 15:18 Алхимик Скачать торрент  

Отличный фильм!!! Жаль что только 12 серий, только самое интересное началось и все... Ждем второго сезона :this:pb.wtf



    Дорогой пользователь! Огромная просьба, поблагодарите релизера, оцените раздачу и оставьте свои комментарий, если Вы скачали Алхимик через торрент бесплатно! Внесите свою лепту в развитие PiratBit!
    Комментировать посты могут только пользователи прошедшие не сложную регистрацию
    Показать сообщения:    

    Алхимик через торрент
    Скачать бесплатно Алхимик
    Алхимик скачать торрент
    Алхимик смотреть онлайн
    Cкачать фильм Алхимик бесплатно
    Алхимик скачать торрент в хорошем качестве
    Алхимик смотреть онлайн бесплатно в хорошем качестве


    Вы не можете начинать темы
    Вы не можете отвечать на сообщения
    Вы не можете редактировать свои сообщения
    Вы не можете удалять свои сообщения
    Вы не можете голосовать в опросах
    Вы не можете прикреплять файлы к сообщениям
    Вы можете скачивать файлы