Ссылка на приватное зеркало нашего сайта всего за 1$. Внимание количество ограничено!!!

2 сезон

iTunes

1 сезон

1

iTunes

iTunes

iTunes

1 сезон

RePack

30

ИГРА 18+

pack

ВАЖНО

!!Акция!!

Alien_RageХит недели

RePack

MK11
pack

Забери бонус

RePack

jed

!!Акция!!

Alien_Rage

RePack

fifa19

RePack

Assassins Creed: Odyssey

RePack

NEED FOR SPEED™ PAYBACK

4 сезон

9 сезон

Бесстыжие 9 сезон

Все сериалы

все сериалы на PB.wtf

RePack

FAR CRY 5
  

Секреты прошлого / Le passé (Асгар Фархади) [2012, драма, детектив, BDRip 1080p] MVO, AVO pb.wtf

Секреты прошлого через торрент pb.wtf

Размер: 16.07 GB | Добавлен: 5 лет 8 мес. назад | Торрент скачан:14 раз
Скачать  

25-02-2015 11:53 Секреты прошлого Скачать торрент  

Секреты прошлого / Le passé

Год выпуска: 2013
Страна: Франция, Италия, Иран
Жанр: драма, детектив
Продолжительность: 02:10:22
Перевод: профессиональный многоголосый, авторский
Субтитры: русские, английские

Режиссёр: Асгар Фархади

В ролях: Беренис Бежо, Тахар Рахим, Али Мосаффа, Полин Бурле, Элиэ Аги, Джинн Джестин, Сабрина Уазани, Бабак Карими, Валерия Кавалли, Александра Клебанска

Описание: Ахмад и его французская жена четыре года живут врозь. По просьбе Мари он приезжает в Париж из Тегерана, чтобы уладить формальности, связанные с их разводом. Во время своего короткого визита Ахмад наблюдает постоянные ссоры жены и их дочери Люси. Его попытка уладить их отношения открывает секрет из прошлого...



Качество: BDRip 1080p
Формат: MKV
Видео кодек: H.264
Аудио кодек: AC3, DTS
Видео: 13.9 Mбит/с, 1920x1036, 23.976 кадра/с, 0.291 bpp
Аудио 1: русский, AC3, 384 kbps, 6 ch, 48 kHz [профессиональный многоголосый, iTunes]
Аудио 2: русский, DTS, 1509 kbps, 6 ch, 48 kHz [авторский, Антон Алексеев]
Аудио 3: английский, DTS, 1509 kbps, 6 ch, 48 kHz [оригинал]
Золотой глобус, 2014 год
Номинации (1):
Лучший фильм на иностранном языке

Сезар, 2014 год
Номинации (5):
Лучший фильм
Лучшая актриса (Беренис Бежо)
Лучший режиссер (Асгар Фархади)
Лучший сценарий
Лучший монтаж

Каннский кинофестиваль, 2013 год
Победитель (2):
Лучшая женская роль (Беренис Бежо)

Приз экуменического (христианского) жюри — «How do we take responsibility for our past mistakes? In a thriller style, the director shows the daily life of a stepfamily, where everyone's secrets and the complex relationships gradually disentangle A dense, deep and engaging film that illustrates this verse: The truth will make you free (John, 8:32)»

Номинации (1):
Золотая пальмовая ветвь
frame I:1230 Avg QP:18.24 size:257807
frame P:33885 Avg QP:19.48 size:148674
frame B:152445 Avg QP:21.23 size: 56209

Общее
Уникальный идентификатор : 193137346220819860386837630695130283343 (0x914CE65C590BF4EEBD451EDE1D7C3D4F)
Полное имя : D:VideoSekrety proshlogo.2013.BDRip.1080p.mkv
Формат : Matroska
Версия формата : Version 4 / Version 2
Размер файла : 16,1 Гбайт
Продолжительность : 2 ч. 10 м.
Общий поток : 17,6 Мбит/сек
Дата кодирования : UTC 2015-02-25 07:51:01
Программа кодирования : mkvmerge v7.6.0 ('Garden of Dreams') 64bit built on Feb 8 2015 13:04:34
Библиотека кодирования : libebml v1.3.1 + libmatroska v1.4.2
DURATION : 02:05:03.995000000
NUMBER_OF_FRAMES : 1432
NUMBER_OF_BYTES : 36837
_STATISTICS_WRITING_APP : mkvmerge v7.6.0 ('Garden of Dreams') 64bit built on Feb 8 2015 13:04:34
_STATISTICS_WRITING_DATE_UTC : 2015-02-25 07:51:01
_STATISTICS_TAGS : BPS DURATION NUMBER_OF_FRAMES NUMBER_OF_BYTES

Видео
Идентификатор : 1
Формат : AVC
Формат/Информация : Advanced Video Codec
Профиль формата : High@L4.1
Параметр CABAC формата : Да
Параметр ReFrames формата : 4 кадра
Идентификатор кодека : V_MPEG4/ISO/AVC
Продолжительность : 2 ч. 10 м.
Битрейт : 13,9 Мбит/сек
Ширина : 1920 пикселей
Высота : 1036 пикселей
Соотношение сторон : 1,85:1
Режим частоты кадров : Постоянный
Частота кадров : 23,976 кадра/сек
Цветовое пространство : YUV
Субдискретизация насыщенности : 4:2:0
Битовая глубина : 8 бит
Тип развёртки : Прогрессивная
Бит/(Пиксели*Кадры) : 0.291
Размер потока : 12,7 Гбайт (79%)
Заголовок : BDRip -- STarankov
Библиотека кодирования : x264 core 142 r2431 ac76440
Настройки программы : cabac=1 / ref=4 / deblock=1:-1:-1 / analyse=0x3:0x113 / me=umh / subme=9 / psy=1 / psy_rd=1.00:0.15 / mixed_ref=1 / me_range=32 / chroma_me=1 / trellis=2 / 8x8dct=1 / cqm=0 / deadzone=21,11 / fast_pskip=1 / chroma_qp_offset=-3 / threads=6 / lookahead_threads=1 / sliced_threads=0 / nr=0 / decimate=1 / interlaced=0 / bluray_compat=0 / constrained_intra=0 / bframes=8 / b_pyramid=2 / b_adapt=2 / b_bias=0 / direct=3 / weightb=1 / open_gop=0 / weightp=2 / keyint=230 / keyint_min=23 / scenecut=40 / intra_refresh=0 / rc_lookahead=40 / rc=crf / mbtree=0 / crf=20.0 / qcomp=0.60 / qpmin=0 / qpmax=69 / qpstep=4 / vbv_maxrate=40000 / vbv_bufsize=50000 / crf_max=0.0 / nal_hrd=none / filler=0 / ip_ratio=1.40 / pb_ratio=1.30 / aq=1:1.00
Язык : English
Default : Да
Forced : Нет
DURATION : 02:10:22.815000000
NUMBER_OF_FRAMES : 187560
NUMBER_OF_BYTES : 13923742859
_STATISTICS_WRITING_APP : mkvmerge v7.6.0 ('Garden of Dreams') 64bit built on Feb 8 2015 13:04:34
_STATISTICS_WRITING_DATE_UTC : 2015-02-25 07:51:01
_STATISTICS_TAGS : BPS DURATION NUMBER_OF_FRAMES NUMBER_OF_BYTES

Аудио #1
Идентификатор : 2
Формат : AC-3
Формат/Информация : Audio Coding 3
Расширение режима : CM (complete main)
Параметр Endianness формата : Big
Идентификатор кодека : A_AC3
Продолжительность : 2 ч. 10 м.
Вид битрейта : Постоянный
Битрейт : 384 Кбит/сек
Каналы : 6 каналов
Расположение каналов : Front: L C R, Side: L R, LFE
Частота : 48,0 КГц
Битовая глубина : 16 бит
Метод сжатия : С потерями
Размер потока : 358 Мбайт (2%)
Заголовок : MVO (iTunes)
Язык : Russian
Default : Да
Forced : Нет

Аудио #2
Идентификатор : 3
Формат : DTS
Формат/Информация : Digital Theater Systems
Режим : 16
Параметр Endianness формата : Big
Идентификатор кодека : A_DTS
Продолжительность : 2 ч. 10 м.
Вид битрейта : Постоянный
Битрейт : 1509 Кбит/сек
Каналы : 6 каналов
Расположение каналов : Front: L C R, Side: L R, LFE
Частота : 48,0 КГц
Битовая глубина : 16 бит
Метод сжатия : С потерями
Размер потока : 1,37 Гбайт (9%)
Заголовок : AVO (Антон Алексеев)
Язык : Russian
Default : Нет
Forced : Нет

Аудио #3
Идентификатор : 4
Формат : DTS
Формат/Информация : Digital Theater Systems
Режим : 16
Параметр Endianness формата : Big
Идентификатор кодека : A_DTS
Продолжительность : 2 ч. 10 м.
Вид битрейта : Постоянный
Битрейт : 1509 Кбит/сек
Каналы : 6 каналов
Расположение каналов : Front: L C R, Side: L R, LFE
Частота : 48,0 КГц
Битовая глубина : 16 бит
Метод сжатия : С потерями
Размер потока : 1,37 Гбайт (9%)
Заголовок : Original
Язык : English
Default : Нет
Forced : Нет

Текст #1
Идентификатор : 5
Формат : UTF-8
Идентификатор кодека : S_TEXT/UTF8
Идентификатор кодека/Информация : UTF-8 Plain Text
Заголовок : русский
Язык : Russian
Default : Нет
Forced : Нет

Текст #2
Идентификатор : 6
Формат : UTF-8
Идентификатор кодека : S_TEXT/UTF8
Идентификатор кодека/Информация : UTF-8 Plain Text
Заголовок : английский
Default : Нет
Forced : Нет
pb.wtf



Скачать Секреты прошлого через торрент http://i58.fastpic.ru/big/2015/0225/9c/a1bc34f43e0c1a12405b16786f03129c.jpg Скачать фильм Секреты прошлого через торрент бесплантно в хорошем качестве Описание: Ахмад и его французская жена четыре года живут врозь. По просьбе Мари он приезжает в Париж из Тегерана, чтобы уладить ... 6 10 2
Info! Серебряная раздача, засчитывается только 50% скачанного.
Торрент: Зарегистрирован [2015-02-25 11:53] · скачан: 14 раз
Статус: √ проверено
Размер: 16.07 GB
Как cкачать? Как скачать Секреты прошлого через торрент | qTorrent

28-11-2019 20:33  

Отключить всю рекламу на сайте

    Дорогой пользователь! Огромная просьба, поблагодарите релизера, оцените раздачу и оставьте свои комментарий, если Вы скачали Секреты прошлого через торрент бесплатно! Внесите свою лепту в развитие PiratBit!
    Комментировать посты могут только пользователи прошедшие не сложную регистрацию
    Показать сообщения:    

    Секреты прошлого через торрент
    Скачать бесплатно Секреты прошлого
    Секреты прошлого скачать торрент
    Секреты прошлого смотреть онлайн
    Cкачать фильм Секреты прошлого бесплатно
    Секреты прошлого скачать торрент в хорошем качестве
    Секреты прошлого смотреть онлайн бесплатно в хорошем качестве


    Вы не можете начинать темы
    Вы не можете отвечать на сообщения
    Вы не можете редактировать свои сообщения
    Вы не можете удалять свои сообщения
    Вы не можете голосовать в опросах
    Вы не можете прикреплять файлы к сообщениям
    Вы можете скачивать файлы