Ссылка на приватное зеркало всего за 1$. Внимание количество ограничено!!!

iTunes

iTunes

iTunes

1

iTunes

iTunes

iTunes

iTunes

iTunes

30
pack

$ от Little Big

ВАЖНО

!!Акция!!

Alien_RageХит недели

RePack

Resident Evil 21

ИГРА 18+

pack

RePack

jed

!!Акция!!

Alien_Rage

RePack

fifa19

RePack

Assassins Creed: Odyssey

RePack

NEED FOR SPEED™ PAYBACK

4 сезон

9 сезон

Бесстыжие 9 сезон

Все сериалы

все сериалы на PB.wtf

RePack

FAR CRY 5
  

Добро пожаловать в рай / Порок / Viсе (Брайан А Миллер ) [2015, фантастика, боевик, триллер, WEB-DL 720p, Любительский (двухголосый) [RAIM&GUGU] pb.wtf

Добро пожаловать в рай через торрент pb.wtf

Размер: 3.16 GB | Добавлен: 5 лет 4 мес. назад | Торрент скачан:323 раза
Скачать  

20-01-2015 13:33 Добро пожаловать в рай Скачать торрент  


Добро пожаловать в рай / Порок / Viсе


Год выпуска:2015
Страна: США
Жанр:фантастика, боевик, триллер, приключения
Продолжительность:01:36:21
Перевод:Любительский (двухголосый) [RAIM&GUGU]
Субтитры: русские, английские
Режиссер:Брайан А Миллер

  • В ролях:

    Томас Джейн (Roy), Брюс Уиллис (Julian), Эмбир Чилдерс (Kelly), Брайан Гринберг (Evan), Джонатон Шек (Chris), Шарлотта Кирк (Melissa), Бретт Гранстафф (James), Райан О’Нан (Det. Matthews), David Gordon (Mitch), Колин Эглсфилд (Reiner), Cameron Brexler (Keith), Джесси Пруэтт (Officer Pullman)
  • Описание:
    Действие происходит в относительно недалеком будущем, когда для богачей создан специальный город-курорт, основные обитатели которых и обслуга - андроиды. Туристы за соответствующую цену могут осуществить здесь самые безумные свои фантазии, а андроиды, пострадавшие от рук людей, направляются на перезагрузку памяти. Но однажды случается сбой, и женщина-андроид обретает память о всех кошмарах, которым богатые извращенцы подвергали ее и остальных искусственных людей. И она решает отомстить...

  • Мировая премьера:1 января 2015

    Качество: WEB-DL 720p
    Формат:MKV
    Видео кодек: AVC
    Аудио кодек:AC3
    Видео: AVC, 1280x528 (2.40:1), 4026 kbps, 23,976 fps, 0,249 bpp
    Аудио №1: русский / AC3 / 2.0 / 48 kHz / 192 kbps / 16 bit ||
    Аудио №2: английский / AC3 / 5.1 / 48 kHz / 384 kbps / 16 bit
    Навигация по главам: есть


    Код:

    General
    Unique ID                                : 243650763833620403596615505976625947509 (0xB74D6E21D96B34FFACB4729D749B6375)
    Complete name                            : D:\Торенты\Viсе.2015.WEB-DL.720p.CINEMANIA.mkv
    Format                                   : Matroska
    Format version                           : Version 4 / Version 2
    File size                                : 3.16 GiB
    Duration                                 : 1h 36mn
    Overall bit rate                         : 4 696 Kbps
    Movie name                               : Release Group CINEMANIA
    Encoded date                             : UTC 2015-01-20 12:35:33
    Writing application                      : mkvmerge v7.5.0 ('Glass Culture') 64bit built on Jan  4 2015 16:48:44
    Writing library                          : libebml v1.3.1 + libmatroska v1.4.2

    Video
    ID                                       : 1
    Format                                   : AVC
    Format/Info                              : Advanced Video Codec
    Format profile                           : Main@L3.1
    Format settings, CABAC                   : No
    Format settings, ReFrames                : 2 frames
    Codec ID                                 : V_MPEG4/ISO/AVC
    Duration                                 : 1h 36mn
    Bit rate                                 : 4 027 Kbps
    Width                                    : 1 280 pixels
    Height                                   : 528 pixels
    Display aspect ratio                     : 2.40:1
    Frame rate                               : 23.976 fps
    Color space                              : YUV
    Chroma subsampling                       : 4:2:0
    Bit depth                                : 8 bits
    Scan type                                : Progressive
    Bits/(Pixel*Frame)                       : 0.249
    Stream size                              : 2.71 GiB (86%)
    Title                                    : Release Group CINEMANIA
    Language                                 : English
    Default                                  : Yes
    Forced                                   : No
    Color primaries                          : BT.709-5, BT.1361, IEC 61966-2-4, SMPTE RP177
    Transfer characteristics                 : BT.709-5, BT.1361
    Matrix coefficients                      : BT.709-5, BT.1361, IEC 61966-2-4 709, SMPTE RP177

    Audio #1
    ID                                       : 2
    Format                                   : AC-3
    Format/Info                              : Audio Coding 3
    Mode extension                           : CM (complete main)
    Codec ID                                 : A_AC3
    Duration                                 : 1h 36mn
    Bit rate mode                            : Constant
    Bit rate                                 : 192 Kbps
    Channel(s)                               : 2 channels
    Channel positions                        : Front: L R
    Sampling rate                            : 48.0 KHz
    Bit depth                                : 16 bits
    Compression mode                         : Lossy
    Stream size                              : 132 MiB (4%)
    Title                                    : Райм Закиров aka RAIM & GUGU
    Language                                 : Russian
    Default                                  : Yes
    Forced                                   : Yes

    Audio #2
    ID                                       : 3
    Format                                   : AC-3
    Format/Info                              : Audio Coding 3
    Mode extension                           : CM (complete main)
    Codec ID                                 : A_AC3
    Duration                                 : 1h 36mn
    Bit rate mode                            : Constant
    Bit rate                                 : 384 Kbps
    Channel(s)                               : 6 channels
    Channel positions                        : Front: L C R, Side: L R, LFE
    Sampling rate                            : 48.0 KHz
    Bit depth                                : 16 bits
    Compression mode                         : Lossy
    Stream size                              : 265 MiB (8%)
    Language                                 : English
    Default                                  : No
    Forced                                   : No

    Text #1
    ID                                       : 4
    Format                                   : UTF-8
    Codec ID                                 : S_TEXT/UTF8
    Codec ID/Info                            : UTF-8 Plain Text
    Language                                 : Russian
    Default                                  : Yes
    Forced                                   : Yes

    Text #2
    ID                                       : 5
    Format                                   : UTF-8
    Codec ID                                 : S_TEXT/UTF8
    Codec ID/Info                            : UTF-8 Plain Text
    Language                                 : English
    Default                                  : No
    Forced                                   : No

    Menu
    00:00:00.000                             : en:Chapter 1
    00:05:18.000                             : en:Chapter 2
    00:14:50.000                             : en:Chapter 3
    00:24:37.000                             : en:Chapter 4
    00:34:48.000                             : en:Chapter 5
    00:45:39.000                             : en:Chapter 6
    00:56:43.000                             : en:Chapter 7
    01:06:33.000                             : en:Chapter 8
    01:15:03.000                             : en:Chapter 9
    01:26:05.000                             : en:Chapter 10
    01:31:51.000                             : en:Chapter 11

    Скриншоты:

    Каталог Новинок (Фильмы-трейлеры, Игры, Сериалы, Мультфильмы)

    © Оформление by Ворон
    pb.wtf



  • Скачать Добро пожаловать в рай через торрент http://pic.kartinco.top/images/6/ordi9.jpg Скачать фильм Добро пожаловать в рай через торрент бесплантно в хорошем качестве Описание:Действие происходит в относительно недалеком будущем, когда для богачей создан специальный город-курорт, основные обитатели ... 9.6 10 27
    Торрент: Зарегистрирован [2015-02-25 19:02] · скачан: 323 раз
    Статус: √ проверено
    Размер: 3.16 GB
    Как cкачать? Как скачать Добро пожаловать в рай через торрент | qTorrent

    28-11-2019 20:33  

    Отключить всю рекламу на сайте

    22-01-2015 08:30 Добро пожаловать в рай Скачать торрент  

    2 скрин порадовал =)pb.wtf



    25-02-2015 19:55 Добро пожаловать в рай Скачать торрент  

    Тема силикона на 2 скрине раскрыта! качать!!pb.wtf



      Дорогой пользователь! Огромная просьба, поблагодарите релизера, оцените раздачу и оставьте свои комментарий, если Вы скачали Добро пожаловать в рай через торрент бесплатно! Внесите свою лепту в развитие PiratBit!
      Комментировать посты могут только пользователи прошедшие не сложную регистрацию
      Показать сообщения:    

      Добро пожаловать в рай через торрент
      Скачать бесплатно Добро пожаловать в рай
      Добро пожаловать в рай скачать торрент
      Добро пожаловать в рай смотреть онлайн
      Cкачать фильм Добро пожаловать в рай бесплатно
      Добро пожаловать в рай скачать торрент в хорошем качестве
      Добро пожаловать в рай смотреть онлайн бесплатно в хорошем качестве


      Вы не можете начинать темы
      Вы не можете отвечать на сообщения
      Вы не можете редактировать свои сообщения
      Вы не можете удалять свои сообщения
      Вы не можете голосовать в опросах
      Вы не можете прикреплять файлы к сообщениям
      Вы можете скачивать файлы