Ссылка на приватное зеркало всего за 1$. Внимание количество ограничено!!!

iTunes

1+1

iTunes

мы

WEB-DL

1

iTunes

Чернобыль

iTunes

Ральф против интернета

Лицензия

ПШазам

Лицензия

Оно 2

Лицензия

30
pack

Вам бонус

ВАЖНО

!!Акция!!

Alien_RageХит недели

RePack

Resident Evil 21

ИГРА 18+

pack

RePack

jed

!!Акция!!

Alien_Rage

RePack

fifa19

RePack

Assassins Creed: Odyssey

RePack

NEED FOR SPEED™ PAYBACK

3 сезон

9 сезон

Бесстыжие 9 сезон

Все сериалы

все сериалы на PB.wtf

RePack

FAR CRY 5
Ребята, катастрофически не хватает 1900р. для оплаты серверов за Октябрь (всвязи с блокировками трафик упал в 3 раза), 1-2р., выручайте.
  

Франкенштейн против мумии / Frankenstein vs. The Mummy (Дэмиен Леоне) [2015, США, ужасы, DVDRip] Любительский (двухголосый) [Sunny-Films] pb.wtf

Франкенштейн против мумии через торрент pb.wtf

Размер: 1.46 GB | Добавлен: 4 года 9 мес. назад | Торрент скачан:261 раз
Скачать  

25-02-2015 19:18 Франкенштейн против мумии Скачать торрент  

Франкенштейн против мумии / Frankenstein vs. The Mummy


Страна: США
Год выпуска: 2015
Жанр: ужасы
Продолжительность: 01:54:20
Перевод: Любительский (двухголосый) [Sunny-Films]
Субтитры: Нет
Режиссер: Дэмиен Леоне / Damien Leone
В ролях: Роберт МакНотон, Эштон Ли, Макс Ризер, Мартин Пфефферкорн, Майкл Хмель, Рахул Рай, Шон Роджерс, Брэндон Деспейн, Бумер Тиббс
Описание:
Мумия проклятого фараона и реанимированный труп, терроризируют медицинский университет. Только египтолог и профессор — ненормальный доктор Франкенштейн, могут остановить этих существ, пока не стало слишком поздно.
Рейтинг:

Качество видео: DVDRip
Формат видео: AVI
Видео кодек: XviD
Аудио кодек:AC3
Видео: XviD, 720x288 (2.500), 1520 kbps, 23,976 fps, 0,306 bpp
Аудио: AC3 / 2.0 / 48 kHz / 224 kbps / 16 bit

Код:

General
Complete name                            : D:\Торенты\Frankenstein.vs.The.Mummy.2015.L2.DVDRip.1400MB.avi
Format                                   : AVI
Format/Info                              : Audio Video Interleave
File size                                : 1.46 GiB
Duration                                 : 1h 54mn
Overall bit rate                         : 1 826 Kbps
Movie name                               : RARBG.COM - Frankenstein.vs.The.Mummy.2015.DVDRip.XviD.AC3-RARBG
Writing application                      : VirtualDubMod 1.5.10.2 (build 2540/release)
Writing library                          : VirtualDubMod build 2540/release
Comment                                  : RARBG.COM - Frankenstein.vs.The.Mummy.2015.DVDRip.XviD.AC3-RARBG

Video
ID                                       : 0
Format                                   : MPEG-4 Visual
Format profile                           : Simple@L5
Format settings, BVOP                    : No
Format settings, QPel                    : No
Format settings, GMC                     : No warppoints
Format settings, Matrix                  : Default (H.263)
Codec ID                                 : XVID
Codec ID/Hint                            : XviD
Duration                                 : 1h 54mn
Bit rate                                 : 1 520 Kbps
Width                                    : 720 pixels
Height                                   : 288 pixels
Display aspect ratio                     : 2.500
Frame rate                               : 23.976 fps
Color space                              : YUV
Chroma subsampling                       : 4:2:0
Bit depth                                : 8 bits
Scan type                                : Progressive
Compression mode                         : Lossy
Bits/(Pixel*Frame)                       : 0.306
Stream size                              : 1.21 GiB (83%)
Writing library                          : Lavc56.20.100

Audio
ID                                       : 1
Format                                   : AC-3
Format/Info                              : Audio Coding 3
Mode extension                           : CM (complete main)
Codec ID                                 : 2000
Duration                                 : 1h 54mn
Bit rate mode                            : Constant
Bit rate                                 : 224 Kbps
Channel(s)                               : 2 channels
Channel positions                        : Front: L R
Sampling rate                            : 48.0 KHz
Bit depth                                : 16 bits
Compression mode                         : Lossy
Stream size                              : 183 MiB (12%)
Alignment                                : Split accross interleaves


pb.wtf



Скачать Франкенштейн против мумии через торрент http://i68.fastpic.ru/big/2015/0225/27/1a46ee398232413e28f74200aceb0727.jpg Скачать фильм Франкенштейн против мумии через торрент бесплантно в хорошем качестве Описание: Мумия проклятого фараона и реанимированный труп, терроризируют медицинский университет. Только египтолог и профессор — ... 8.9 10 14
Торрент: Зарегистрирован [2015-02-25 19:29] · скачан: 261 раз
Статус: √ проверено
Размер: 1.46 GB
Как cкачать? Как скачать Франкенштейн против мумии через торрент | qTorrent

28-11-2019 20:33  

Отключить всю рекламу на сайте

25-02-2015 20:05 Франкенштейн против мумии Скачать торрент  

sarcastic sarcastic Название уже страшное pb.wtf



25-02-2015 20:21 Франкенштейн против мумии Скачать торрент  

Только египтолог-мумиолог и доктор франкентолог могут спасти мир пока не стало "поздно" ахахахаха Люди, которые дали денег на съемки "этого" рассчитывали подзаработать на показах в Африке среди племен-людоедов или это "удар в космосе" направленный против инопланетян в виде психологической атаки на внеземной разум в целях устрашения и отказа последних от порабощения человеческой цивилизации?pb.wtf



26-02-2015 02:41 Франкенштейн против мумии Скачать торрент  

а может продолжение-чужого против хищника-или крюгера против джейсонаpb.wtf



    Дорогой пользователь! Огромная просьба, поблагодарите релизера, оцените раздачу и оставьте свои комментарий, если Вы скачали Франкенштейн против мумии через торрент бесплатно! Внесите свою лепту в развитие PiratBit!
    Комментировать посты могут только пользователи прошедшие не сложную регистрацию
    Показать сообщения:    

    Франкенштейн против мумии через торрент
    Скачать бесплатно Франкенштейн против мумии
    Франкенштейн против мумии скачать торрент
    Франкенштейн против мумии смотреть онлайн
    Cкачать фильм Франкенштейн против мумии бесплатно
    Франкенштейн против мумии скачать торрент в хорошем качестве
    Франкенштейн против мумии смотреть онлайн бесплатно в хорошем качестве


    Вы не можете начинать темы
    Вы не можете отвечать на сообщения
    Вы не можете редактировать свои сообщения
    Вы не можете удалять свои сообщения
    Вы не можете голосовать в опросах
    Вы не можете прикреплять файлы к сообщениям
    Вы можете скачивать файлы