2 сезон

iTunes

MVO

1

2 сезон

iTunes

iTunes

1 сезон

RePack

30

Ultimate

ВАЖНО

ИГРА 18+

pack

RePack

MK11
pack

Легкие деньги

RePack

jed

RePack

fifa19

RePack

RDR2

RePack

NEED FOR SPEED™ PAYBACK

4 сезон

9 сезон

Бесстыжие 9 сезон

Все сериалы

все сериалы на PB.wtf

RePack

FAR CRY 5

Anonymous, доброе утро, мы не успеваем собрать деньги на оплату серверов за декабрь и январь, помогите нам пожалуйста в это трудное время. В качестве благодарности мы отключим Вам всю рекламу на сайте (укажите свой ник в строку Ваше имя)!

×
  
Magnet ссылка

О рыбаке и его жене / Vom Fischer und seiner Frau (Кристиан Тееде / Christian Theede) [2013, Германия, фэнтези, семейный, SATRip, Профессиональный (двухголосый)] pb.wtf

О рыбаке и его жене через торрент pb.wtf

Размер: 712 MB | Добавлен: 5 лет 10 мес. назад | Торрент скачан:152 раза
Скачать  

25-02-2015 21:20 О рыбаке и его жене Скачать торрент  

О рыбаке и его жене / Vom Fischer und seiner Frau

Год выпуска: 2013
Страна: Германия
Жанр: фэнтези, семейный
Продолжительность: 00:58:29
Перевод: Профессиональный (двухголосый)
Субтитры: Отсутствует
Режиссер: Кристиан Тееде / Christian Theede
В ролях:


Фабиан Буш (Hein), Катарина Шюттлер (Ilsebill), Петер Генрих Брикс (Fischer Klaas), Рудольф Ковальски (Bischof Benedikt), Патрик Хейн (Graf Lausenburg), Катрин Штрибек (Jolinde Gräfin Lausenburg), Леандер Лихти (Diener Johann), Александр Саймон (Hofmarschall Otto), Ян Феддер (Butt, озвучка)

Описание:
Рыбак живет со своей женой в старом захудалом домишке на морском берегу. Однажды ему удается поймать большую камбалу, которая, к его немалому удивлению, может разговаривать. Рыба просит оставить ее в живых, поскольку в действительности это заколдованный принц. Рыбак отпускает свой улов и возвращается домой, где рассказывает о приключившемся с ним жене. Сварливая супруга упрекает мужа, что он выполнил просьбу камбалы просто так, ничего не попросив в знак благодарности. А ведь она хочет дом с фруктовым садом. Герой покорно отправляется назад к морю...

Рейтинг:

Качество: SATRip
Формат: AVI
Видео кодек:XviD
Аудио кодек:AC3
Видео: XviD, 720x400 (16:9), 1433 kbps, 25 fps, 0,199 bpp
Аудио: AC3 / 2.0 / 48 kHz / 192 kbps / 16 bit - Профессиональный (двухголосый закадровый) Компания "Игмар" (Канал "Gulli")

General
Complete name : D:\_uTorrent_\О рыбаке и его жене.2013.XviD.SATRip.avi
Format : AVI
Format/Info : Audio Video Interleave
File size : 712 MiB
Duration : 58mn 29s
Overall bit rate : 1 702 Kbps
Movie name : Vom Fischer und seiner Frau
Director : SATRip by Thunder
Genre : Child's
Writing application : VirtualDubMod 1.5.10.3 | www.virtualdub-fr.org || (build 2550/release)

Video
ID : 0
Format : MPEG-4 Visual
Format profile : Advanced Simple@L5
Format settings, BVOP : 1
Format settings, QPel : No
Format settings, GMC : No warppoints
Format settings, Matrix : Default (H.263)
Codec ID : XVID
Codec ID/Hint : XviD
Duration : 58mn 29s
Bit rate : 1 433 Kbps
Width : 720 pixels
Height : 400 pixels
Display aspect ratio : 16:9
Frame rate : 25.000 fps
Color space : YUV
Chroma subsampling : 4:2:0
Bit depth : 8 bits
Scan type : Progressive
Compression mode : Lossy
Bits/(Pixel*Frame) : 0.199
Stream size : 600 MiB (84%)
Writing library : XviD 1.2.1 (UTC 2008-12-04)

Audio
ID : 1
Format : AC-3
Format/Info : Audio Coding 3
Mode extension : CM (complete main)
Codec ID : 2000
Duration : 58mn 29s
Bit rate mode : Constant
Bit rate : 192 Kbps
Channel(s) : 2 channels
Channel positions : Front: L R
Sampling rate : 48.0 KHz
Bit depth : 16 bits
Compression mode : Lossy
Stream size : 80.3 MiB (11%)
Alignment : Split accross interleaves

[/code]
pb.wtf



Скачать О рыбаке и его жене через торрент http://i64.fastpic.ru/big/2015/0226/f2/410fc5a783e9bcc9ba0777f00657b1f2.png Скачать фильм О рыбаке и его жене через торрент бесплантно в хорошем качестве Описание: Рыбак живет со своей женой в старом захудалом домишке на морском берегу. Однажды ему удается поймать большую камбалу, которая, к ... 9.3 10 12
Торрент: Зарегистрирован [2015-02-25 21:20] · скачан: 152 раз
Статус: √ проверено
Размер: 712 MB
Как cкачать? Как скачать О рыбаке и его жене через торрент | UTorrent

28-11-2019 20:33  

Отключить всю рекламу на сайте

28-02-2015 06:58 О рыбаке и его жене Скачать торрент  

ремейк Пушкина ??pb.wtf



    Дорогой пользователь! Огромная просьба, поблагодарите релизера, оцените раздачу и оставьте свои комментарий, если Вы скачали О рыбаке и его жене через торрент бесплатно! Внесите свою лепту в развитие PiratBit!
    Комментировать посты могут только пользователи прошедшие не сложную регистрацию
    Показать сообщения:    

    О рыбаке и его жене через торрент
    Скачать бесплатно О рыбаке и его жене
    О рыбаке и его жене скачать торрент
    О рыбаке и его жене смотреть онлайн
    Cкачать фильм О рыбаке и его жене бесплатно
    О рыбаке и его жене скачать торрент в хорошем качестве
    О рыбаке и его жене смотреть онлайн бесплатно в хорошем качестве


    Вы не можете начинать темы
    Вы не можете отвечать на сообщения
    Вы не можете редактировать свои сообщения
    Вы не можете удалять свои сообщения
    Вы не можете голосовать в опросах
    Вы не можете прикреплять файлы к сообщениям
    Вы можете скачивать файлы