Ссылка на приватное зеркало нашего сайта всего за 1$. Внимание количество ограничено!!!

2 сезон

iTunes

1 сезон

1

iTunes

iTunes

iTunes

1 сезон

RePack

30

ИГРА 18+

pack

ВАЖНО

!!Акция!!

Alien_RageХит недели

RePack

MK11
pack

Забери бонус

RePack

jed

!!Акция!!

Alien_Rage

RePack

fifa19

RePack

Assassins Creed: Odyssey

RePack

NEED FOR SPEED™ PAYBACK

4 сезон

9 сезон

Бесстыжие 9 сезон

Все сериалы

все сериалы на PB.wtf

RePack

FAR CRY 5
  

Большая афера / The Grand Seduction (Дон МакКеллар ) [2013, комедия, драма, BDRip 720p], DUB,AVO pb.wtf

Большая афера через торрент pb.wtf

Размер: 4.44 GB | Добавлен: 5 лет 7 мес. назад | Торрент скачан:590 раз
Скачать  

28-02-2015 13:46 Большая афера Скачать торрент  

Большая афера / The Grand Seduction
«Добро пожаловать в наш райский уголок! 120 отъявленных лжецов нуждаются в хорошем докторе»


Год выпуска: 2013
Страна: Канада

Жанр: комедия, драма
Продолжительность: 01:53:08
Перевод: Профессиональный многоголосый [Лицензия] , Авторский (одноголосый)
Субтитры: русские (Full), английские (Full), английские (SDH)
Режиссер: Дон МакКеллар
В ролях: Брендан Глисон , Тейлор Китч , Лиэн Балабан , Гордон Пинсент , Анна Хопкинс , Ронда Роджерс , Джофф Адамс , Джон Бартлетт , Карли Бун , Марк Критч , Кэти Джонс , Питер Келеган
Описание::
Добро пожаловать в рай, где исполняются все желания! Маленький живописный городок у моря. Население: 120 отъявленных лжецов. И им очень нужен хороший доктор.

PG-13 - Детям до 13 лет просмотр не желателен
Качество: BDRip 720p (исходник Blu-ray)
Контейнер (Расширение): MKV
Видео кодек: AVC
Аудио кодек: AC3
Видео: 1280x690, 3778 Кбит/сек, 23,976 кадр/сек, 0,178 Бит/[Пиксели*Кадры]
Аудио №1: русский / AC3 / 5.1 / 48 kHz / 448 kbps / 16 bit |Профессиональный многоголосый, R5|
Аудио №2: русский / AC3 / 5.1 / 48 kHz / 640 kbps / 16 bit |Авторский, Юрий Сербин|
Аудио №3: английский / AC3 / 5.1 / 48 kHz / 640 kbps / 16 bit
Навигация по главам(Чаптеры): естьАвтор рипа: Сообщество:
  • Из всех актеров, исполняющих главные роли, только Гордон Пинсент родом из Ньюфаундленда.
  • В фильме актер Брендан Глисон играет на скрипке по-настоящему.
  • Код:

    Format                                   : Matroska
    Format version                           : Version 2
    File size                                : 4.44 GiB
    Duration                                 : 1h 53mn
    Overall bit rate                         : 5 618 Kbps
    Movie name                               : Bol'shaja afera.(2013).BDRip.720p.[denis100]
    Encoded date                             : UTC 2015-02-28 12:23:51
    Writing application                      : mkvmerge v5.8.0 ('No Sleep / Pillow') built on Sep  2 2012 15:37:04
    Writing library                          : libebml v1.2.3 + libmatroska v1.3.0

    Video
    ID                                       : 1
    Format                                   : AVC
    Format/Info                              : Advanced Video Codec
    Format profile                           : High@L4.1
    Format settings, CABAC                   : Yes
    Format settings, ReFrames                : 9 frames
    Codec ID                                 : V_MPEG4/ISO/AVC
    Duration                                 : 1h 53mn
    Bit rate                                 : 3 778 Kbps
    Width                                    : 1 280 pixels
    Height                                   : 690 pixels
    Display aspect ratio                     : 1.855
    Frame rate                               : 23.976 fps
    Color space                              : YUV
    Chroma subsampling                       : 4:2:0
    Bit depth                                : 8 bits
    Scan type                                : Progressive
    Bits/(Pixel*Frame)                       : 0.178
    Stream size                              : 2.99 GiB (67%)
    Title                                    : Bol'shaja afera.(2013).BDRip.720p.[denis100]
    Writing library                          : x264 core 144 r2525 40bb568
    Encoding settings                        : cabac=1 / ref=9 / deblock=1:-3:-3 / analyse=0x3:0x133 / me=umh / subme=11 / psy=1 / psy_rd=1.00:0.00 / mixed_ref=1 / me_range=48 / chroma_me=1 / trellis=2 / 8x8dct=1 / cqm=0 / deadzone=21,11 / fast_pskip=0 / chroma_qp_offset=-2 / threads=6 / lookahead_threads=1 / sliced_threads=0 / nr=0 / decimate=1 / interlaced=0 / bluray_compat=0 / constrained_intra=0 / bframes=10 / b_pyramid=2 / b_adapt=2 / b_bias=0 / direct=3 / weightb=1 / open_gop=0 / weightp=2 / keyint=240 / keyint_min=23 / scenecut=40 / intra_refresh=0 / rc=crf / mbtree=0 / crf=17.5 / qcomp=0.60 / qpmin=0 / qpmax=69 / qpstep=4 / ip_ratio=1.40 / pb_ratio=1.30 / aq=1:1.00
    Language                                 : English
    Default                                  : Yes
    Forced                                   : No

    Audio #1
    ID                                       : 2
    Format                                   : AC-3
    Format/Info                              : Audio Coding 3
    Mode extension                           : CM (complete main)
    Codec ID                                 : A_AC3
    Duration                                 : 1h 53mn
    Bit rate mode                            : Constant
    Bit rate                                 : 448 Kbps
    Channel(s)                               : 6 channels
    Channel positions                        : Front: L C R, Side: L R, LFE
    Sampling rate                            : 48.0 KHz
    Bit depth                                : 16 bits
    Compression mode                         : Lossy
    Stream size                              : 363 MiB (8%)
    Title                                    : Профессиональный многоголосый, R5
    Language                                 : Russian
    Default                                  : Yes
    Forced                                   : No

    Audio #2
    ID                                       : 3
    Format                                   : AC-3
    Format/Info                              : Audio Coding 3
    Mode extension                           : CM (complete main)
    Codec ID                                 : A_AC3
    Duration                                 : 1h 53mn
    Bit rate mode                            : Constant
    Bit rate                                 : 640 Kbps
    Channel(s)                               : 6 channels
    Channel positions                        : Front: L C R, Side: L R, LFE
    Sampling rate                            : 48.0 KHz
    Bit depth                                : 16 bits
    Compression mode                         : Lossy
    Stream size                              : 518 MiB (11%)
    Title                                    : Авторский, Юрий Сербин
    Language                                 : Russian
    Default                                  : No
    Forced                                   : No

    Audio #3
    ID                                       : 4
    Format                                   : AC-3
    Format/Info                              : Audio Coding 3
    Mode extension                           : CM (complete main)
    Codec ID                                 : A_AC3
    Duration                                 : 1h 53mn
    Bit rate mode                            : Constant
    Bit rate                                 : 640 Kbps
    Channel(s)                               : 6 channels
    Channel positions                        : Front: L C R, Side: L R, LFE
    Sampling rate                            : 48.0 KHz
    Bit depth                                : 16 bits
    Compression mode                         : Lossy
    Stream size                              : 518 MiB (11%)
    Title                                    : English
    Language                                 : English
    Default                                  : No
    Forced                                   : No

    Text #1
    ID                                       : 5
    Format                                   : UTF-8
    Codec ID                                 : S_TEXT/UTF8
    Codec ID/Info                            : UTF-8 Plain Text
    Title                                    : Full
    Language                                 : Russian
    Default                                  : No
    Forced                                   : No

    Text #2
    ID                                       : 6
    Format                                   : UTF-8
    Codec ID                                 : S_TEXT/UTF8
    Codec ID/Info                            : UTF-8 Plain Text
    Title                                    : Full
    Language                                 : English
    Default                                  : No
    Forced                                   : No

    Text #3
    ID                                       : 7
    Format                                   : UTF-8
    Codec ID                                 : S_TEXT/UTF8
    Codec ID/Info                            : UTF-8 Plain Text
    Title                                    : SDH
    Language                                 : English
    Default                                  : No
    Forced                                   : No

    Menu
    00:00:00.000                             : en:00:00:00.000
    00:10:15.240                             : en:00:10:15.240
    00:21:01.552                             : en:00:21:01.552
    00:31:06.406                             : en:00:31:06.406
    00:41:32.532                             : en:00:41:32.532
    00:51:12.111                             : en:00:51:12.111
    01:03:01.194                             : en:01:03:01.194
    01:12:34.016                             : en:01:12:34.016
    01:24:12.547                             : en:01:24:12.547
    01:37:16.622                             : en:01:37:16.622
    01:49:11.044                             : en:01:49:11.044

    x264 [info]: frame I:1414 Avg QP:15.54 size:123862
    x264 [info]: frame P:32069 Avg QP:17.11 size: 43704
    x264 [info]: frame B:129276 Avg QP:18.85 size: 13321
    pb.wtf



    Скачать Большая афера через торрент http://i68.fastpic.ru/big/2015/0228/13/febcf9fbc063f99e10904394bd1f1313.png Скачать фильм Большая афера через торрент бесплантно в хорошем качестве Описание::Добро пожаловать в рай, где исполняются все желания! Маленький живописный городок у моря. Население: 120 отъявленных лжецов. И им ... 10 10 14
    Info! Золотая раздача, скачанное не засчитывается.
    Торрент: Зарегистрирован [2015-02-28 13:46] · скачан: 590 раз
    Статус: √ проверено
    Размер: 4.44 GB
    Как cкачать? Как скачать Большая афера через торрент | qTorrent

    28-11-2019 20:33  

    Отключить всю рекламу на сайте

    28-02-2015 14:13 Большая афера Скачать торрент  

    Шикарнейший фильм :rofle:pb.wtf



    28-02-2015 15:13 Большая афера Скачать торрент  

    pb.wtf



      Дорогой пользователь! Огромная просьба, поблагодарите релизера, оцените раздачу и оставьте свои комментарий, если Вы скачали Большая афера через торрент бесплатно! Внесите свою лепту в развитие PiratBit!
      Комментировать посты могут только пользователи прошедшие не сложную регистрацию
      Показать сообщения:    

      Большая афера через торрент
      Скачать бесплатно Большая афера
      Большая афера скачать торрент
      Большая афера смотреть онлайн
      Cкачать фильм Большая афера бесплатно
      Большая афера скачать торрент в хорошем качестве
      Большая афера смотреть онлайн бесплатно в хорошем качестве


      Вы не можете начинать темы
      Вы не можете отвечать на сообщения
      Вы не можете редактировать свои сообщения
      Вы не можете удалять свои сообщения
      Вы не можете голосовать в опросах
      Вы не можете прикреплять файлы к сообщениям
      Вы можете скачивать файлы