2 сезон

iTunes

MVO

1

2 сезон

iTunes

iTunes

1 сезон

RePack

30

Ultimate

ВАЖНО

ИГРА 18+

pack

RePack

MK11
pack

Легкие деньги

RePack

jed

RePack

fifa19

RePack

RDR2

RePack

NEED FOR SPEED™ PAYBACK

4 сезон

9 сезон

Бесстыжие 9 сезон

Все сериалы

все сериалы на PB.wtf

RePack

FAR CRY 5

Anonymous, добрый вечер, мы не успеваем собрать деньги на оплату серверов за декабрь и январь, помогите нам пожалуйста в это трудное время. В качестве благодарности мы отключим Вам всю рекламу на сайте (укажите свой ник в строку Ваше имя)!

×
  
Magnet ссылка

Скачки / Turf (Фабьен Онтеньенте / Fabien Onteniente) [2013, комедия, HDRip] [MVO] (1 канал) + [Orig] Fre pb.wtf

Скачки через торрент pb.wtf

Размер: 1.45 GB | Добавлен: 5 лет 10 мес. назад | Торрент скачан:261 раз
Скачать  

01-03-2015 17:32 Скачки Скачать торрент  

Скачки / Turf
Год выпуска: 2013
Страна: Франция
Жанр: комедия
Продолжительность: 01:41:27
Перевод: Профессиональный (многоголосый закадровый) [1 канал]
Cубтитры: нет
Оригинальная аудиодорожка: французский

Режиссер: Фабьен Онтеньенте / Fabien Onteniente

В ролях: Ален Шаба, Эдуард Баэр, Филипп Дюкен, Люсьен Жан-Батист, Ваина Джоканте, Серхи Лопес, Жерар Депардьё, Элена Ногуэрра, Нозха

Описание: История четырех французов, четырех заядлых игроков на тотализаторе на скачках. Приятели немного подустали от того, что постоянно теряют на ставках даже то немногое, что у них есть, и решили завязать с игрой на деньги. Но однажды судьба дарит им встречу с завсегдатаем скачек месье Полем. Этот джентльмен предлагает им купить рысака-фаворита по кличке Торпеда. Друзья, поверившие россказням нового знакомого, соглашаются. С этого момента их жизни превращаются в невероятный калейдоскоп лиц и событий.

Сэмпл

Качество видео: HDRip
Формат видео: AVI
Видео кодек: XvID
Аудио кодек: AC3
Видео: MPEG4, XviD, 720x304 (2.35), 24.000 fps, 1 395 Kbps (0.266 bit/pixel)
Аудио 1: AC-3, 48.0 KHz, 2 ch, 192 Kbps, CBR - русский
Аудио 2: AC-3, 48.0 KHz, 6 ch, 448 Kbps, CBR - французский
Общее
Полное имя : K:\Скачки.avi
Формат : AVI
Формат/Информация : Audio Video Interleave
Размер файла : 1,45 Гбайт
Продолжительность : 1 ч. 41 м.
Общий поток : 2049 Кбит/сек
Название фильма : Скачки / Turf (2013)
Программа кодирования : VirtualDubMod 1.5.10.2 (build 2540/release)
Библиотека кодирования : VirtualDubMod build 2540/release
Правообладатель : miha2154
Видео
Идентификатор : 0
Формат : MPEG-4 Visual
Профиль формата : Advanced Simple@L5
Параметр BVOP формата : 1
Параметр QPel формата : Нет
Параметр GMC формата : Без точки перехода
Параметр матрицы формата : Выборочная
Идентификатор кодека : XVID
Идентификатор кодека/Подсказка : XviD
Продолжительность : 1 ч. 41 м.
Битрейт : 1395 Кбит/сек
Ширина : 720 пикселей
Высота : 304 пикселя
Соотношение сторон : 2,35:1
Частота кадров : 24,000 кадра/сек
Цветовое пространство : YUV
Субдискретизация насыщенности : 4:2:0
Битовая глубина : 8 бит
Тип развёртки : Прогрессивная
Метод сжатия : С потерями
Бит/(Пиксели*Кадры) : 0.266
Размер потока : 1012 Мбайт (68%)
Библиотека кодирования : XviD 65
Аудио #1
Идентификатор : 1
Формат : AC-3
Формат/Информация : Audio Coding 3
Расширение режима : CM (complete main)
Параметр Endianness формата : Big
Идентификатор кодека : 2000
Продолжительность : 1 ч. 41 м.
Вид битрейта : Постоянный
Битрейт : 192 Кбит/сек
Каналы : 2 канала
Расположение каналов : Front: L R
Частота : 48,0 КГц
Битовая глубина : 16 бит
Метод сжатия : С потерями
Размер потока : 139 Мбайт (9%)
Выравнивание : Разделение по промежуткам
Продолжительность промежутка : 42 мс. (1,00 видеокадр)
Время предзагрузки промежутка : 500 мс.
Заголовок : Профессиональный (многоголосый закадровый) 1 канал
Аудио #2
Идентификатор : 2
Формат : AC-3
Формат/Информация : Audio Coding 3
Расширение режима : CM (complete main)
Параметр Endianness формата : Big
Идентификатор кодека : 2000
Продолжительность : 1 ч. 41 м.
Вид битрейта : Постоянный
Битрейт : 448 Кбит/сек
Каналы : 6 каналов
Расположение каналов : Front: L C R, Side: L R, LFE
Частота : 48,0 КГц
Битовая глубина : 16 бит
Метод сжатия : С потерями
Размер потока : 325 Мбайт (22%)
Выравнивание : Разделение по промежуткам
Продолжительность промежутка : 42 мс. (1,00 видеокадр)
Время предзагрузки промежутка : 500 мс.
Заголовок : Французский
pb.wtf



Скачать Скачки через торрент http://i67.fastpic.ru/big/2015/0127/d9/d246f4cdbfd77740d2d7fa5a99eb62d9.jpg Скачать фильм Скачки через торрент бесплантно в хорошем качестве Описание: История четырех французов, четырех заядлых игроков на тотализаторе на скачках. Приятели немного подустали от того, что постоянно ... 9.6 10 11
Info! Золотая раздача, скачанное не засчитывается.
Торрент: Зарегистрирован [2015-03-01 17:32] · скачан: 261 раз
Статус: √ проверено
Размер: 1.45 GB
Как cкачать? Как скачать Скачки через торрент | UTorrent

28-11-2019 20:33  

Отключить всю рекламу на сайте

02-03-2015 16:19 Скачки Скачать торрент  

Прикольный фильм )))pb.wtf



    Дорогой пользователь! Огромная просьба, поблагодарите релизера, оцените раздачу и оставьте свои комментарий, если Вы скачали Скачки через торрент бесплатно! Внесите свою лепту в развитие PiratBit!
    Комментировать посты могут только пользователи прошедшие не сложную регистрацию
    Показать сообщения:    

    Скачки через торрент
    Скачать бесплатно Скачки
    Скачки скачать торрент
    Скачки смотреть онлайн
    Cкачать фильм Скачки бесплатно
    Скачки скачать торрент в хорошем качестве
    Скачки смотреть онлайн бесплатно в хорошем качестве


    Вы не можете начинать темы
    Вы не можете отвечать на сообщения
    Вы не можете редактировать свои сообщения
    Вы не можете удалять свои сообщения
    Вы не можете голосовать в опросах
    Вы не можете прикреплять файлы к сообщениям
    Вы можете скачивать файлы