Ссылка на приватное зеркало нашего сайта всего за 1$. Внимание количество ограничено!!!

2 сезон

iTunes

1 сезон

1

iTunes

iTunes

iTunes

1 сезон

RePack

30

ИГРА 18+

pack

ВАЖНО

!!Акция!!

Alien_RageХит недели

RePack

MK11
pack

Забери бонус

RePack

jed

!!Акция!!

Alien_Rage

RePack

fifa19

RePack

Assassins Creed: Odyssey

RePack

NEED FOR SPEED™ PAYBACK

4 сезон

9 сезон

Бесстыжие 9 сезон

Все сериалы

все сериалы на PB.wtf

RePack

FAR CRY 5
  

Вселенная Стивена Хокинга (Джеймс Марш) [2014г., драма, мелодрама, биография, BDRip 720p / Лицензия pb.wtf

Вселенная Стивена Хокинга через торрент pb.wtf

Размер: 9.25 GB | Добавлен: 5 лет 6 мес. назад | Торрент скачан:1005 раз
Скачать  

02-03-2015 05:54 Вселенная Стивена Хокинга Скачать торрент  

Вселенная Стивена Хокинга / The Theory of Everything«The incredible story of Jane and Stephen Hawking»
Год выпуска: 2014
Страна: Великобритания / Working Title Films
Жанр: драма, мелодрама, биография
Продолжительность: 02:03:25

  • Перевод: Профессиональный (Дубляж); Лицензия
  • Русские субтитры: есть
  • Оригинальная аудиодорожка: Английкая

Режиссер: Джеймс Марш / James Marsh

В ролях: Эдди Редмэйн, Фелисити Джонс, Чарли Кокс, Эмили Уотсон, Том Прайор, Софи Перри, Гарри Ллойд, Элис Орр-Юинг, Дэвид Тьюлис
Описание:
Стивен Хокинг — один из самых известных в мире учёных, крупнейший исследователь чёрных дыр и создатель теории большого взрыва, а также прикованный к инвалидному креслу человек, список подвижных частей тела которого ограничивается одним пальцем и несколькими мышцами лица. Фильм рассказывает историю совместной жизни Стивена и его первой жены — Джейн Хокинг.

    Тип релиза: BDRip 720p
  • Контейнер: MKV
  • Видео кодек: AVC | Аудио кодек: AC3, DTS
  • Видео: 1280x534, 23,976 fps, 8177 kbps,
  • Аудио 1: Russian AC3 / 5.1 / 48 kHz / 384 kbps / 16 bit |Дубляж|
  • Аудио 2: Russian AC3 / 5.1 / 48 kHz / 384 kbps / 16 bit |AVO, А. Матвеев|
  • Аудио 3: English DTS / 5.1 / 48 kHz / 1510 kbps / 24 bit |Original|
  • Субтитры: Russian?, English
  • Чаптеры: нет

Код:

Format : Matroska
Format version : Version 4 / Version 2
File size : 9.20 GiB
Duration : 2h 3mn
Overall bit rate : 10.7 Mbps
Movie name : Вселенная Стивена Хокинга. (Tonik)
Encoded date : UTC 2015-03-01 12:09:21
Writing application : mkvmerge v7.1.0 ('Good Love') 64bit built on Jul 27 2014 13:06:55
Writing library : libebml v1.3.0 + libmatroska v1.4.1
_STATISTICS_WRITING_APP : mkvmerge v7.1.0 ('Good Love') 64bit built on Jul 27 2014 13:06:55
_STATISTICS_WRITING_DATE_UTC : 2015-03-01 12:09:21
_STATISTICS_TAGS : BPS DURATION NUMBER_OF_FRAMES NUMBER_OF_BYTES
DURATION : 01:53:47.321000000
NUMBER_OF_FRAMES : 1357
NUMBER_OF_BYTES : 37738

Video
ID : 1
Format : AVC
Format/Info : Advanced Video Codec
Format profile : High@L4.1
Format settings, CABAC : Yes
Format settings, ReFrames : 12 frames
Codec ID : V_MPEG4/ISO/AVC
Duration : 2h 3mn
Bit rate : 8 177 Kbps
Width : 1 280 pixels
Height : 534 pixels
Display aspect ratio : 2.40:1
Frame rate mode : Constant
Frame rate : 23.976 fps
Color space : YUV
Chroma subsampling : 4:2:0
Bit depth : 8 bits
Scan type : Progressive
Bits/(Pixel*Frame) : 0.499
Stream size : 7.05 GiB (77%)
Writing library : x264 core 144 r2525kMod 40bb568
Encoding settings : cabac=1 / ref=12 / deblock=1:-3:-3 / analyse=0x3:0x133 / me=umh / subme=10 / psy=1 / fade_compensate=0.00 / psy_rd=1.05:0.00 / mixed_ref=1 / me_range=16 / chroma_me=1 / trellis=2 / 8x8dct=1 / cqm=0 / deadzone=21,11 / fast_pskip=0 / chroma_qp_offset=-2 / threads=6 / lookahead_threads=1 / sliced_threads=0 / nr=0 / decimate=0 / interlaced=0 / bluray_compat=0 / constrained_intra=0 / fgo=0 / bframes=7 / b_pyramid=2 / b_adapt=2 / b_bias=0 / direct=3 / weightb=1 / open_gop=0 / weightp=2 / keyint=250 / keyint_min=23 / scenecut=40 / intra_refresh=0 / rc_lookahead=60 / rc=crf / mbtree=0 / crf=16.0000 / qcomp=0.70 / qpmin=0 / qpmax=69 / qpstep=4 / vbv_maxrate=62500 / vbv_bufsize=78125 / crf_max=0.0 / nal_hrd=none / filler=0 / ip_ratio=1.20 / pb_ratio=1.10 / aq=1:0.70 / zones=92,373,crf=13
Language : English
Default : Yes
Forced : No
DURATION : 02:03:25.357000000
NUMBER_OF_FRAMES : 177551
NUMBER_OF_BYTES : 7762728759
_STATISTICS_WRITING_APP : mkvmerge v7.1.0 ('Good Love') 64bit built on Jul 27 2014 13:06:55
_STATISTICS_WRITING_DATE_UTC : 2015-03-01 12:09:21
_STATISTICS_TAGS : BPS DURATION NUMBER_OF_FRAMES NUMBER_OF_BYTES

Audio #1
ID : 2
Format : AC-3
Format/Info : Audio Coding 3
Mode extension : CM (complete main)
Format settings, Endianness : Big
Codec ID : A_AC3
Duration : 2h 3mn
Bit rate mode : Constant
Bit rate : 384 Kbps
Channel(s) : 6 channels
Channel positions : Front: L R
Sampling rate : 48.0 KHz
Bit depth : 16 bits
Compression mode : Lossy
Stream size : 339 MiB (4%)
Title : line
Language : Russian
Default : Yes
Forced : No

Audio #2
ID : 3
Format : AC-3
Format/Info : Audio Coding 3
Mode extension : CM (complete main)
Format settings, Endianness : Big
Codec ID : A_AC3
Duration : 2h 3mn
Bit rate mode : Constant
Bit rate : 384 Kbps
Channel(s) : 6 channels
Channel positions : Front: L C R, Side: L R, LFE
Sampling rate : 48.0 KHz
Bit depth : 16 bits
Compression mode : Lossy
Stream size : 339 MiB (4%)
Title : Матвеев
Language : Russian
Default : No
Forced : No

Audio #3
ID : 4
Format : DTS
Format/Info : Digital Theater Systems
Mode : 16
Format settings, Endianness : Big
Codec ID : A_DTS
Duration : 2h 3mn
Bit rate mode : Constant
Bit rate : 1 509 Kbps
Channel(s) : 6 channels
Channel positions : Front: L C R, Side: L R, LFE
Sampling rate : 48.0 KHz
Bit depth : 24 bits
Compression mode : Lossy
Stream size : 1.30 GiB (14%)
Language : English
Default : No
Forced : No

Text #1
ID : 5
Format : UTF-8
Codec ID : S_TEXT/UTF8
Codec ID/Info : UTF-8 Plain Text
Language : Russian
Default : No
Forced : No

Text #2
ID : 6
Format : UTF-8
Codec ID : S_TEXT/UTF8
Codec ID/Info : UTF-8 Plain Text
Language : English
Default : No
Forced : No


скриншот   скриншот   скриншот  

pb.wtf



Скачать Вселенная Стивена Хокинга через торрент http://i63.fastpic.ru/big/2015/0302/24/cb1d403ab4fba4ea2480f2850eb1da24.jpg Скачать фильм Вселенная Стивена Хокинга через торрент бесплантно в хорошем качестве Описание:Стивен Хокинг — один из самых известных в мире учёных, крупнейший исследователь чёрных дыр и создатель теории большого взрыва, а ... 9.8 10 78
Info! Золотая раздача, скачанное не засчитывается.
Торрент: Зарегистрирован [2015-03-28 07:38] · скачан: 1 005 раз
Статус: √ проверено
Размер: 9.25 GB
Как cкачать? Как скачать Вселенная Стивена Хокинга через торрент | qTorrent

28-11-2019 20:33  

Отключить всю рекламу на сайте

02-03-2015 12:45 Вселенная Стивена Хокинга Скачать торрент  

Потрясающе!pb.wtf



03-03-2015 04:32 Вселенная Стивена Хокинга Скачать торрент  

кинотеатральный дубляж?pb.wtf



03-03-2015 04:32 Вселенная Стивена Хокинга Скачать торрент  

хорошо написал парнишка на кинопоиске, - "хорошая игра актёров не более. ибо фильм слизан с другой шикарной картины "Игры разума"".pb.wtf



03-03-2015 08:46 Вселенная Стивена Хокинга Скачать торрент  

Слизан? Фильм тру стори вообщето...pb.wtf



03-03-2015 11:27 Вселенная Стивена Хокинга Скачать торрент  

Слава писал(а):

хорошо написал парнишка на кинопоиске, - "хорошая игра актёров не более. ибо фильм слизан с другой шикарной картины "Игры разума"".

Как он может быть слизан если эти фильмы о разных людях. Чтобы такое впредь не писать пользуйся википедией!pb.wtf



03-03-2015 19:00 Вселенная Стивена Хокинга Скачать торрент  

Попробуй после этого сказать,что чего-то тяжело или лениво.Да,вот это фильм.
Санта-Барбара немного испортила фильм(
Но в целом отличный фильм.Эдди Редмейн хорошо прожил роль.pb.wtf



05-03-2015 07:57 Вселенная Стивена Хокинга Скачать торрент  

Если хотите узнать больше об этом Хокинге то посмотрите лучше полнометражный мульт "Полный Армагедец"
Там о нем все рассказано и показано sarcasticpb.wtf



13-03-2015 20:42 Вселенная Стивена Хокинга Скачать торрент  

Такая хрень))))) единственно что понравилось,это игра актераpb.wtf



15-03-2015 20:46 Вселенная Стивена Хокинга Скачать торрент  

классный фильм, советую. Обязателен к просмотру, таких сейчас крайне мало.pb.wtf



22-03-2015 17:52 Вселенная Стивена Хокинга Скачать торрент  

ОТЛИЧНЫЙ ФИЛЬМ!pb.wtf



04-04-2015 17:38 Вселенная Стивена Хокинга Скачать торрент  

Отличное кино, познавательно и сыграно Эдди Редмэйном довольна таки жизненно 9/10 к просмотру.pb.wtf



    Дорогой пользователь! Огромная просьба, поблагодарите релизера, оцените раздачу и оставьте свои комментарий, если Вы скачали Вселенная Стивена Хокинга через торрент бесплатно! Внесите свою лепту в развитие PiratBit!
    Комментировать посты могут только пользователи прошедшие не сложную регистрацию
    Показать сообщения:    

    Вселенная Стивена Хокинга через торрент
    Скачать бесплатно Вселенная Стивена Хокинга
    Вселенная Стивена Хокинга скачать торрент
    Вселенная Стивена Хокинга смотреть онлайн
    Cкачать фильм Вселенная Стивена Хокинга бесплатно
    Вселенная Стивена Хокинга скачать торрент в хорошем качестве
    Вселенная Стивена Хокинга смотреть онлайн бесплатно в хорошем качестве


    Вы не можете начинать темы
    Вы не можете отвечать на сообщения
    Вы не можете редактировать свои сообщения
    Вы не можете удалять свои сообщения
    Вы не можете голосовать в опросах
    Вы не можете прикреплять файлы к сообщениям
    Вы можете скачивать файлы