1 сезон

1 сезон

iTunes

1

КиноПоиск HD

Кинопоиск HD

iTunes

13

1 сезон

RePack

30

Новинка

ВАЖНО

ИГРА 18+

pack

RePack

MK11
pack

Легкие деньги

RePack

jed

RePack

fifa19

RePack

RDR2

RePack

NEED FOR SPEED™ PAYBACK

4 сезон

9 сезон

Бесстыжие 9 сезон

Все сериалы

все сериалы на PB.wtf

RePack

FAR CRY 5
  
Magnet ссылка

Семейка Тененбаум / The Royal Tenenbaums (Уэс Андерсон / Wes Anderson) [2001, драма, комедия, HDRip] [Dub] + [AVO] (Визгунов) pb.wtf

Семейка Тененбаум через торрент pb.wtf

Размер: 1.39 GB | Добавлен: 6 лет 1 мес. назад | Торрент скачан:95 раз
Скачать  

02-03-2015 10:44 Семейка Тененбаум Скачать торрент  

Семейка Тененбаум / The Royal Tenenbaums
Год выпуска: 2001
Страна: США
Жанр: драма, комедия
Продолжительность: 01:49:55
Перевод 1: Профессиональный (полное дублирование) Видеосервис
Перевод 2: Авторский (одноголосый, закадровый) Сергей Визгунов
Cубтитры: нет

Режиссер: Уэс Андерсон / Wes Anderson

В ролях: Гвинет Пэлтроу, Джин Хэкмен, Анжелика Хьюстон, Люк Уилсон, Бен Стиллер, Оуэн Уилсон, Билл Мюррей, Дэнни Гловер, Сеймур Кэссел, Кумар Паллана

Описание: Фильм рассказывает о необычной семье Тененбаумов, все члены которой обладают уникальными способностями. Например, Чес уже в десять лет добился больших успехов в финансовой сфере, Ричи является одаренным теннисистом, Марго стала в десять лет известным писателем-драматургом.
Дети выросли и выпорхнули из родительского гнездышка, но пробил час, когда семья вновь решила собраться в родных пенатах, потому что отец семейства Роял Тененбаум, как выяснилось, страдает неизлечимой болезнью и ему осталось жить чуть больше полугода. За это время Роял постарается наверстать упущенное и уделить своим детям внимание, которым они были обделены с его стороны в детстве.



Качество видео: HDRip [спасибо Assassin's Creed]
Формат видео: AVI
Видео кодек: XviD
Аудио кодек: AC3
Видео: 720x304 (2.37:1), 23.976 fps, XviD build 50 ~1410 kbps avg, 0.27 bit/pixel
Аудио#1: 48 kHz, AC3 Dolby Digital, 2/0 (L,R) ch, ~192 kbps - Дубляж
Аудио#2: 48 kHz, AC3 Dolby Digital, 2/0 (L,R) ch, ~192 kbps - Визгунов
за дубляж спасибо Mark20100
Полное имя : Семейка Тененбаум.avi
Формат : AVI
Формат/Информация : Audio Video Interleave
Размер файла : 1,39 Гбайт
Продолжительность : 1 ч. 49 м.
Общий поток : 1809 Кбит/сек
Программа кодирования : VirtualDubMod 1.5.10.2 (build 2540/release)
Библиотека кодирования : VirtualDubMod build 2540/release
Видео
Идентификатор : 0
Формат : MPEG-4 Visual
Профиль формата : Advanced Simple@L5
Параметр BVOP формата : 1
Параметр QPel формата : Нет
Параметр GMC формата : Без точки перехода
Параметр матрицы формата : Default (MPEG)
Идентификатор кодека : XVID
Идентификатор кодека/Подсказка : XviD
Продолжительность : 1 ч. 49 м.
Битрейт : 1411 Кбит/сек
Ширина : 720 пикселей
Высота : 304 пикселя
Соотношение сторон : 2,35:1
Частота кадров : 23,976 кадра/сек
Цветовое пространство : YUV
Субдискретизация насыщенности : 4:2:0
Битовая глубина : 8 бит
Тип развёртки : Прогрессивная
Метод сжатия : С потерями
Бит/(Пиксели*Кадры) : 0.269
Размер потока : 1,08 Гбайт (78%)
Библиотека кодирования : XviD 1.2.1 (UTC 2008-12-04)
Аудио #1
Идентификатор : 1
Формат : AC-3
Формат/Информация : Audio Coding 3
Расширение режима : CM (complete main)
Параметр Endianness формата : Big
Идентификатор кодека : 2000
Продолжительность : 1 ч. 49 м.
Вид битрейта : Постоянный
Битрейт : 192 Кбит/сек
Каналы : 2 канала
Расположение каналов : Front: L R
Частота : 48,0 КГц
Битовая глубина : 16 бит
Метод сжатия : С потерями
Размер потока : 151 Мбайт (11%)
Выравнивание : Разделение по промежуткам
Продолжительность промежутка : 42 мс. (1,00 видеокадр)
Время предзагрузки промежутка : 500 мс.
Заголовок : Дубляж
Аудио #2
Идентификатор : 2
Формат : AC-3
Формат/Информация : Audio Coding 3
Расширение режима : CM (complete main)
Параметр Endianness формата : Big
Идентификатор кодека : 2000
Продолжительность : 1 ч. 49 м.
Вид битрейта : Постоянный
Битрейт : 192 Кбит/сек
Каналы : 2 канала
Расположение каналов : Front: L R
Частота : 48,0 КГц
Битовая глубина : 16 бит
Метод сжатия : С потерями
Размер потока : 151 Мбайт (11%)
Выравнивание : Разделение по промежуткам
Продолжительность промежутка : 42 мс. (1,00 видеокадр)
Время предзагрузки промежутка : 500 мс.
Заголовок : Визгунов
pb.wtf



Скачать Семейка Тененбаум через торрент http://i64.fastpic.ru/big/2015/0302/79/2028eea2602ea38ffd9bd1c76d79c379.jpg Скачать фильм Семейка Тененбаум через торрент бесплантно в хорошем качестве Описание: Фильм рассказывает о необычной семье Тененбаумов, все члены которой обладают уникальными способностями. Например, Чес уже в ... 10 10 2
Торрент: Зарегистрирован [2015-03-02 10:44] · скачан: 95 раз
Статус: √ проверено
Размер: 1.39 GB
Как cкачать? Как скачать Семейка Тененбаум через торрент | UTorrent

% Раздел Тема Автор DL S | L
Фильмы 2001-2005 [ 1.46 GB ] Семейка Тененбаум / The Royal Tenenbaums [2001 BDRip-AVC] [DVO] killermax2013 Скачать
1 | 0

28-11-2019 20:33  

Отключить всю рекламу на сайте

    Дорогой пользователь! Огромная просьба, поблагодарите релизера, оцените раздачу и оставьте свои комментарий, если Вы скачали Семейка Тененбаум через торрент бесплатно! Внесите свою лепту в развитие PiratBit!
    Комментировать посты могут только пользователи прошедшие не сложную регистрацию
    Показать сообщения:    

    Семейка Тененбаум через торрент
    Скачать бесплатно Семейка Тененбаум
    Семейка Тененбаум скачать торрент
    Семейка Тененбаум смотреть онлайн
    Cкачать фильм Семейка Тененбаум бесплатно
    Семейка Тененбаум скачать торрент в хорошем качестве
    Семейка Тененбаум смотреть онлайн бесплатно в хорошем качестве


    Вы не можете начинать темы
    Вы не можете отвечать на сообщения
    Вы не можете редактировать свои сообщения
    Вы не можете удалять свои сообщения
    Вы не можете голосовать в опросах
    Вы не можете прикреплять файлы к сообщениям
    Вы можете скачивать файлы