новый адрес
Ссылка на приватное зеркало всего за 1$. Внимание количество ограничено!!!

iTunes

1+1

iTunes

мы

WEB-DL

1

iTunes

Чернобыль

iTunes

Ральф против интернета

Лицензия

ПШазам

Лицензия

Оно 2

Лицензия

30
pack

Вам бонус

ВАЖНО

!!Акция!!

Alien_RageХит недели

RePack

Resident Evil 21

ИГРА 18+

pack

RePack

jed

!!Акция!!

Alien_Rage

RePack

fifa19

RePack

Assassins Creed: Odyssey

RePack

NEED FOR SPEED™ PAYBACK

3 сезон

9 сезон

Бесстыжие 9 сезон

Все сериалы

все сериалы на PB.wtf

RePack

FAR CRY 5
Ребята, катастрофически не хватает 1900р. для оплаты серверов за Октябрь (всвязи с блокировками трафик упал в 3 раза), 1-2р., выручайте.
  

Красные Браслеты / Red band society/ Сезон: 1 / серии 1-13 из 13 (Тришиа Брок, Джейсон Энслер, Альфонсо Гомез-Рейон) [2014 г., драма,HDTVRip ] MVO(DreamRecords) pb.wtf

Красные Браслеты через торрент pb.wtf

Размер: 6.01 GB | Добавлен: 4 года 9 мес. назад | Торрент скачан:104 раза
Скачать  

02-03-2015 14:32 Красные Браслеты Скачать торрент  

Красные Браслеты / Red band society
Год выпуска: 2014
Страна: Испания
Жанр: драма
Продолжительность: ~00:42:49
Перевод: Любительский многоголосый

Режиссер: Тришиа Брок, Джейсон Энслер, Альфонсо Гомез-Рейон




В ролях: Октавия Спенсер, Дэйв Эннэйбл, Гриффин Глюк, Нолан Сотилло, Чарли Роу, Астро, Сиэра Браво, Зои Левин, Ребекка Риттенхаус, Уилсон Крус

Описание: По воле злого рока несколько подростков попадают в больницу. Чтобы как-то развеять скуку и одиночество, они решают собрать компанию из шести человек: лидера, красивого, умного, незаменимого, второго лидера и девушки. Приняв это решение, они положили начало крепкой дружбе, благодаря которой они смогут справиться со многими трудностями, поджидающими их в больнице.

Качество: HDTVRip
Формат: AVI
Видео кодек: XviD
Аудио кодек: MP3
Видео: 720x400 (16:9), 25.000 fps, 1 295 Kbps (0.180 bit/pixel)
Аудио#1: 48.0 KHz, 2 ch, 192 Kbps, CBR
Релиз DreamRecords
Автор перевода: группа "Мир испанских сериалов"
Сведение звука и рип: Александр Юхно
Перевод: Любительский многоголосый закадровый DreamRecords
Текст читали: ИринаЮС, Юлия Реутова, Илья Гусаков, Владислав Данилов
Общее
Полное имя : I:\Красные Браслеты\Красные браслеты - 1 сезон\Pulseras.Rojas.S01E01.DreamRecords.avi
Формат : AVI
Формат/Информация : Audio Video Interleave
Размер файла : 472 Мбайт
Продолжительность : 44 м.
Общий поток : 1496 Кбит/сек
Программа кодирования : VirtualDubModRus 1.5.10.2 (build 2542/release)
Библиотека кодирования : VirtualDub build 35390/release

Видео
Идентификатор : 0
Формат : MPEG-4 Visual
Профиль формата : Advanced Simple@L5
Параметр BVOP формата : 1
Параметр QPel формата : Нет
Параметр GMC формата : Без точки перехода
Параметр матрицы формата : Default (MPEG)
Идентификатор кодека : XVID
Идентификатор кодека/Подсказка : XviD
Продолжительность : 44 м.
Битрейт : 1295 Кбит/сек
Ширина : 720 пикселей
Высота : 400 пикселей
Соотношение сторон : 16:9
Частота кадров : 25,000 кадров/сек
Цветовое пространство : YUV
Субдискретизация насыщенности : 4:2:0
Битовая глубина : 8 бит
Тип развёртки : Прогрессивная
Метод сжатия : С потерями
Бит/(Пиксели*Кадры) : 0.180
Размер потока : 408 Мбайт (87%)
Библиотека кодирования : XviD 64

Аудио
Идентификатор : 1
Формат : MPEG Audio
Версия формата : Version 1
Профиль формата : Layer 3
Идентификатор кодека : 55
Идентификатор кодека/Подсказка : MP3
Продолжительность : 44 м.
Вид битрейта : Постоянный
Битрейт : 192 Кбит/сек
Каналы : 2 канала
Частота : 48,0 КГц
Метод сжатия : С потерями
Размер потока : 60,5 Мбайт (13%)
Выравнивание : Разделение по промежуткам
Продолжительность промежутка : 40 мс. (1,00 видеокадр)
Время предзагрузки промежутка : 500 мс.

pb.wtf



Скачать Красные Браслеты через торрент http://pic1.kartinco.top/images/10/g3nph.jpg Скачать фильм Красные Браслеты через торрент бесплантно в хорошем качестве Описание: По воле злого рока несколько подростков попадают в больницу. Чтобы как-то развеять скуку и одиночество, они решают собрать ... 10 10 1
Торрент: Зарегистрирован [2015-03-02 14:32] · скачан: 104 раз
Статус: √ проверено
Размер: 6.01 GB
Как cкачать? Как скачать Красные Браслеты через торрент | qTorrent

% Раздел Тема Автор DL S | L
T Зарубежные сериалы [ 18.36 GB ] Красные Браслеты / Red band society/ Сезон: 1 / серии 1-13 из 13 [2014 WEB-DL 720p] DUB Невафильм Assasinca Скачать
1 | 0


Последний раз редактировалось: Assasinca (2015-03-02 15:18), всего редактировалось 1 раз

28-11-2019 20:33  

Отключить всю рекламу на сайте

02-03-2015 14:49 Красные Браслеты Скачать торрент  

ссылка на кинопоиск не та. вот правильная ссылкаpb.wtf



02-03-2015 14:50 Красные Браслеты Скачать торрент  

ПЗДЦ дичь на постере, культуре в 21 веке настал полный пи.pb.wtf



    Дорогой пользователь! Огромная просьба, поблагодарите релизера, оцените раздачу и оставьте свои комментарий, если Вы скачали Красные Браслеты через торрент бесплатно! Внесите свою лепту в развитие PiratBit!
    Комментировать посты могут только пользователи прошедшие не сложную регистрацию
    Показать сообщения:    

    Красные Браслеты через торрент
    Скачать бесплатно Красные Браслеты
    Красные Браслеты скачать торрент
    Красные Браслеты смотреть онлайн
    Cкачать фильм Красные Браслеты бесплатно
    Красные Браслеты скачать торрент в хорошем качестве
    Красные Браслеты смотреть онлайн бесплатно в хорошем качестве


    Вы не можете начинать темы
    Вы не можете отвечать на сообщения
    Вы не можете редактировать свои сообщения
    Вы не можете удалять свои сообщения
    Вы не можете голосовать в опросах
    Вы не можете прикреплять файлы к сообщениям
    Вы можете скачивать файлы