Ссылка на приватное зеркало нашего сайта всего за 1$. Внимание количество ограничено!!!

2 сезон

iTunes

1 сезон

1

2 сезон

2 сезон

iTunes

1 сезон

RePack

30

Новинка

ВАЖНО

ИГРА 18+

pack

RePack

MK11
pack

Забери бонус

RePack

jed

!!Акция!!

Alien_Rage

RePack

fifa19

RePack

Assassins Creed: Odyssey

RePack

NEED FOR SPEED™ PAYBACK

4 сезон

9 сезон

Бесстыжие 9 сезон

Все сериалы

все сериалы на PB.wtf

RePack

FAR CRY 5
  

Последний человек на Земле / The Last Man on Earth (1 сезон 1 серия из 10) (Фил Лорд, Кристофер Миллер, Джейсон Уолинер) [2015 г., фантастика, боевик, комедия, HDTVRip, Любительский одноголосый] pb.wtf

Последний человек на Земле через торрент pb.wtf

Размер: 201 MB | Добавлен: 5 лет 8 мес. назад | Торрент скачан:115 раз
Скачать  

02-03-2015 14:51 Последний человек на Земле Скачать торрент  

Последний человек на Земле / The Last Man on Earth
Год выпуска: 2015
Страна: США
Жанр: фантастика, боевик, комедия
Продолжительность: 00:22:00
Перевод: Любительский одноголосый(LevshaFilm)

Режиссер: Фил Лорд, Кристофер Миллер, Джейсон Уолинер



В ролях: Клеопатра Коулмэн, Дженьюэри Джонс, Мэл Родригез, Кристен Шаал, Уилл Форте

Описание: Фил Миллер последний человек на Земле в 2022 году, который ищет по всему США любые признаки человеческой жизни после неизвестного события, уничтожившего всех людей на Земле, включая его семью и сотрудников банка, где он работал.

Качество: HDTVRip
Формат: AVI
Видео кодек: XviD
Аудио кодек: MP3
Видео: 640x360 (16:9), 24.000 fps, 1 136 Kbps (0.205 bit/pixel)
Аудио#1: 48.0 KHz, 2 ch, 128 Kbps, CBR
Общее
Полное имя : I:\Последний человек на Земле\Last Man on Earth S01E01 LevshaFilm.avi
Формат : AVI
Формат/Информация : Audio Video Interleave
Размер файла : 201 Мбайт
Продолжительность : 22 м.
Общий поток : 1277 Кбит/сек
Программа кодирования : Lavf56.1.100

Видео
Идентификатор : 0
Формат : MPEG-4 Visual
Профиль формата : Simple@L1
Параметр BVOP формата : Нет
Параметр QPel формата : Нет
Параметр GMC формата : Без точки перехода
Параметр матрицы формата : Default (H.263)
Идентификатор кодека : XVID
Идентификатор кодека/Подсказка : XviD
Продолжительность : 22 м.
Битрейт : 1136 Кбит/сек
Ширина : 640 пикселей
Высота : 360 пикселей
Соотношение сторон : 16:9
Частота кадров : 24,000 кадра/сек
Цветовое пространство : YUV
Субдискретизация насыщенности : 4:2:0
Битовая глубина : 8 бит
Тип развёртки : Прогрессивная
Метод сжатия : С потерями
Бит/(Пиксели*Кадры) : 0.205
Размер потока : 179 Мбайт (89%)
Библиотека кодирования : Lavc56.0.101

Аудио
Идентификатор : 1
Формат : MPEG Audio
Версия формата : Version 1
Профиль формата : Layer 3
Режим : Joint stereo
Расширение режима : MS Stereo
Идентификатор кодека : 55
Идентификатор кодека/Подсказка : MP3
Продолжительность : 22 м.
Вид битрейта : Постоянный
Битрейт : 128 Кбит/сек
Каналы : 2 канала
Частота : 48,0 КГц
Метод сжатия : С потерями
Размер потока : 20,2 Мбайт (10%)
Выравнивание : Соединение по промежуткам
Продолжительность промежутка : 24 мс. (0,58 видеокадр)
Время предзагрузки промежутка : 24 мс.
Библиотека кодирования : LAME3.99.5

Внимание! Раздача ведётся путём добавления новых серий; при каждом добавлении создаётся новый торрент. Чтобы начать докачку новой серии, пользователям необходимо сделать следующее:
(1) остановить скачивание,
(2) удалить старый торрент у себя из клиента (старые серии удалять не надо),
(3) скачать новый торрент и запустить его у себя в клиенте вместо старого, при этом указать клиенту путь в старую папку куда и должно происходить скачивание новых серий.
Ваш клиент при этом должен произвести хеширование (проверку) старой папки (если не производит сам - помогите ему сделать это), и будет докачивать только те серии которых у вас ещё нет. Старые серии при этом не удаляются, а продолжают раздаваться!
Eсли вы уже удалили старые серии, то предотвратить повторную закачку старых серий можно, отжав галочку в соответсnвующих местах при запуске нового торрента. По возможности, желательно не удалять старые серии как можно дольше чтобы релизёр не столько продолжал раздавать старые серии, а смог сконцентрироваться на новых.
pb.wtf



Скачать Последний человек на Земле через торрент http://pic1.kartinco.top/images/10/o5jqt.jpg Скачать фильм Последний человек на Земле через торрент бесплантно в хорошем качестве Описание: Фил Миллер последний человек на Земле в 2022 году, который ищет по всему США любые признаки человеческой жизни после неизвестного ... 9.6 10 8
Торрент: Зарегистрирован [2015-03-02 14:51] · скачан: 115 раз
Статус: √ проверено
Размер: 201 MB
Как cкачать? Как скачать Последний человек на Земле через торрент | qTorrent

% Раздел Тема Автор DL S | L
Зарубежные сериалы [ 5.33 GB ] Последний человек на Земле / The Last Man on Earth / Сезон: 4 / Серии: 1-18 из 18 [2017 WEBRip] MVO [BaibaKo] bober100 Скачать
1 | 0
Зарубежные сериалы [ 16.7 GB ] Последний человек на Земле / The Last Man on Earth / Сезон: 4 / Серии: 1-18 из 18 [2017 WEBRip 1080p] MVO [BaibaKo] bober100 Скачать
1 | 0
Зарубежные сериалы [ 12.3 GB ] Последний человек на Земле / The Last Man on Earth / Сезон: 4 / Серии 1-18 из 18 [2017 WEBRip 720p] MVO [BaibaKo] GEKADOL Скачать
1 | 0
Зарубежные сериалы [ 7.34 GB ] Последний человек на Земле / The Last Man on Earth / Сезон: 3 / Серии 1-18 из 18 [2016 WEB-DLRip-AVC] MVO [BaibaKo] GEKADOL Скачать
1 | 0
Зарубежные сериалы [ 3.53 GB ] Последний человек на Земле / The Last Man on Earth / Сезон 3 / Серии 1-18 из 18 [2017 HDTVRip] MVO [Jaskier] bober100 Скачать
1 | 0
Зарубежные сериалы [ 4.88 GB ] Последний человек на Земле / The Last Man on Earth / Сезон 3 / Серии 11 из 13 [2016 WEB-DLRip] DVO Alex_E Скачать
1 | 0
Фильмы [HD 720p, 1080p] (Звук Cam, VO, DVO) [ 9.72 GB ] Последний человек на Земле / The Last Man on Earth [1964 BDRip 1080p by msltel] VO msltel Скачать
1 | 0


Последний раз редактировалось: Assasinca (2015-03-02 17:07), всего редактировалось 1 раз

28-11-2019 20:33  

Отключить всю рекламу на сайте

02-03-2015 15:31 Последний человек на Земле Скачать торрент  

На 6-ом скрине явно видно, что он не последний. + :curtsey:pb.wtf



02-03-2015 15:44 Последний человек на Земле Скачать торрент  

skylol писал(а):

На 6-ом скрине явно видно, что он не последний. + :curtsey:

:rofle: это пятницаpb.wtf



    Дорогой пользователь! Огромная просьба, поблагодарите релизера, оцените раздачу и оставьте свои комментарий, если Вы скачали Последний человек на Земле через торрент бесплатно! Внесите свою лепту в развитие PiratBit!
    Комментировать посты могут только пользователи прошедшие не сложную регистрацию
    Показать сообщения:    

    Последний человек на Земле через торрент
    Скачать бесплатно Последний человек на Земле
    Последний человек на Земле скачать торрент
    Последний человек на Земле смотреть онлайн
    Cкачать фильм Последний человек на Земле бесплатно
    Последний человек на Земле скачать торрент в хорошем качестве
    Последний человек на Земле смотреть онлайн бесплатно в хорошем качестве


    Вы не можете начинать темы
    Вы не можете отвечать на сообщения
    Вы не можете редактировать свои сообщения
    Вы не можете удалять свои сообщения
    Вы не можете голосовать в опросах
    Вы не можете прикреплять файлы к сообщениям
    Вы можете скачивать файлы