Ссылка на приватное зеркало нашего сайта всего за 1$. Внимание количество ограничено!!!

2 сезон

iTunes

1 сезон

1

iTunes

iTunes

iTunes

1 сезон

RePack

30

ИГРА 18+

pack

ВАЖНО

!!Акция!!

Alien_RageХит недели

RePack

MK11
pack

Забери бонус

RePack

jed

!!Акция!!

Alien_Rage

RePack

fifa19

RePack

Assassins Creed: Odyssey

RePack

NEED FOR SPEED™ PAYBACK

4 сезон

9 сезон

Бесстыжие 9 сезон

Все сериалы

все сериалы на PB.wtf

RePack

FAR CRY 5
  

Расцвет мисс Джин Броди / The Prime of Miss Jean Brodie (Роналд Ним) [1969, драма, BDRip 720p] MVO pb.wtf

Расцвет мисс Джин Броди через торрент pb.wtf

Размер: 6.68 GB | Добавлен: 5 лет 7 мес. назад | Торрент скачан:4 раза
Скачать  

03-03-2015 07:51 Расцвет мисс Джин Броди Скачать торрент  

Расцвет мисс Джин Броди / The Prime of Miss Jean Brodie

Год выпуска: 1969
Страна: Великобритания
Жанр: драма
Продолжительность: 01:56:01
Перевод: профессиональный многоголосый
Субтитры: русские (форсированные), русские, английские

Режиссёр: Роналд Ним

В ролях: Мэгги Смит, Роберт Стивенс, Памела Фрэнклин, Гордон Джексон, Силия Джонсон, Дайэн Грэйсон, Джейн Карр, Ширли Стидман, Лавиния Лэнг, Антуанетта Биггерстаф, Марго Каннингэм, Айсла Кэмерон, Рона Андерсон, Энн Уэй, Молли Вейр

Описание: Действие происходит в привилегированной частной школе в Эдинбурге в 1930-х. Преподавательница Джин Броди ведёт класс в шотландской школе для девочек, но вместо традиционных курсов рассказывает им трагическую историю своей первой любви, а затем проводит занятия по "Истине, Добру и Красоте". Против мисс Броди ополчаются коллеги, но школьницы стоят за свою учительницу горой. Мисс Броди, уверившись в собственной непогрешимости, вступает в любовную связь с учителем рисования Тедди Ллойдом и учителем музыки Гордоном Лойтером и, вдобавок ко всему, открыто выражает одобрение порядку и дисциплине, царящим в фашистских странах. Ученицы меняют к ней свое отношение, называют «забавной старой девой», а одна из них, Сэнди, наводит директрису на мысль уволить Броди за опасные политические взгляды... Фильм по одноимённому роману Мюриэл Спарк.



Качество: BDRip 720p Сравнение с исходником
Формат: MKV
Видео кодек: H.264
Аудио кодек: AC3
Видео: 7691 Кбит/с, 1280x690, 23.976 кадра/с, 0.363 bpp
Аудио 1: русский, AC3, 192 kbps, 2 ch, 48 kHz [профессиональный многоголосый, Спб, 5 канал]
Аудио 2: английский, AC3, 192 kbps, 1 ch, 48 kHz [оригинал]

Имеются неименованные главы/чаптеры.
Оскар, 1970 год
Победитель (1):
Лучшая женская роль (Мэгги Смит)

Номинации (1):
Лучшая песня — «Jean»

Золотой глобус, 1970 год
Победитель (1):
Лучшая песня — «Jean»

Номинации (2):
Лучшая женская роль (драма) (Мэгги Смит)
Лучший фильм (драма)

Британская академия, 1970 год
Победитель (2):
Лучшая женская роль (Мэгги Смит)
Лучшая женская роль второго плана (Селия Джонсон)

Номинации (1):
Лучшая женская роль второго плана (Памела Франклин)

Каннский кинофестиваль, 1969 год
Номинации (1):
Золотая пальмовая ветвь
frame I:1116 Avg QP:18.18 size:115330
frame P:30347 Avg QP:19.60 size: 70247
frame B:135450 Avg QP:21.43 size: 33760

Общее
Уникальный идентификатор : 194024360275971748850680029415221072217 (0x91F7BB87B737A414B31101079B999159)
Полное имя : D:VideoRascvet miss Dgin Brodi.1969.BDRip.720p.mkv
Формат : Matroska
Версия формата : Version 4 / Version 2
Размер файла : 6,68 Гбайт
Продолжительность : 1 ч. 56 м.
Общий поток : 8239 Кбит/сек
Дата кодирования : UTC 2015-03-02 13:40:06
Программа кодирования : mkvmerge v7.7.0 ('Six Voices') 64bit built on Feb 28 2015 23:39:33
Библиотека кодирования : libebml v1.3.1 + libmatroska v1.4.2
_STATISTICS_WRITING_APP : mkvmerge v7.7.0 ('Six Voices') 64bit built on Feb 28 2015 23:39:33
_STATISTICS_WRITING_DATE_UTC : 2015-03-02 13:40:06
_STATISTICS_TAGS : BPS DURATION NUMBER_OF_FRAMES NUMBER_OF_BYTES
DURATION : 01:53:12.041000000
NUMBER_OF_FRAMES : 1765
NUMBER_OF_BYTES : 77370

Видео
Идентификатор : 1
Формат : AVC
Формат/Информация : Advanced Video Codec
Профиль формата : High@L4.1
Параметр CABAC формата : Да
Параметр ReFrames формата : 9 кадров
Идентификатор кодека : V_MPEG4/ISO/AVC
Продолжительность : 1 ч. 56 м.
Битрейт : 7691 Кбит/сек
Ширина : 1280 пикселей
Высота : 690 пикселей
Соотношение сторон : 1,85:1
Режим частоты кадров : Постоянный
Частота кадров : 23,976 кадра/сек
Цветовое пространство : YUV
Субдискретизация насыщенности : 4:2:0
Битовая глубина : 8 бит
Тип развёртки : Прогрессивная
Бит/(Пиксели*Кадры) : 0.363
Размер потока : 6,23 Гбайт (93%)
Заголовок : BDRip -- STarankov
Библиотека кодирования : x264 core 142 r2431 ac76440
Настройки программы : cabac=1 / ref=9 / deblock=1:-2:-2 / analyse=0x3:0x113 / me=umh / subme=9 / psy=1 / psy_rd=1.00:0.15 / mixed_ref=1 / me_range=32 / chroma_me=1 / trellis=2 / 8x8dct=1 / cqm=0 / deadzone=21,11 / fast_pskip=1 / chroma_qp_offset=-3 / threads=6 / lookahead_threads=1 / sliced_threads=0 / nr=0 / decimate=1 / interlaced=0 / bluray_compat=0 / constrained_intra=0 / bframes=8 / b_pyramid=2 / b_adapt=2 / b_bias=0 / direct=3 / weightb=1 / open_gop=0 / weightp=2 / keyint=230 / keyint_min=23 / scenecut=40 / intra_refresh=0 / rc_lookahead=40 / rc=crf / mbtree=0 / crf=19.0 / qcomp=0.60 / qpmin=0 / qpmax=69 / qpstep=4 / vbv_maxrate=50000 / vbv_bufsize=62500 / crf_max=0.0 / nal_hrd=none / filler=0 / ip_ratio=1.40 / pb_ratio=1.30 / aq=1:1.00
Язык : English
Default : Да
Forced : Нет
DURATION : 01:56:01.663000000
NUMBER_OF_FRAMES : 166913
NUMBER_OF_BYTES : 6833235707
_STATISTICS_WRITING_APP : mkvmerge v7.7.0 ('Six Voices') 64bit built on Feb 28 2015 23:39:33
_STATISTICS_WRITING_DATE_UTC : 2015-03-02 13:40:06
_STATISTICS_TAGS : BPS DURATION NUMBER_OF_FRAMES NUMBER_OF_BYTES

Аудио #1
Идентификатор : 2
Формат : AC-3
Формат/Информация : Audio Coding 3
Расширение режима : CM (complete main)
Параметр Endianness формата : Big
Идентификатор кодека : A_AC3
Продолжительность : 1 ч. 56 м.
Вид битрейта : Постоянный
Битрейт : 192 Кбит/сек
Каналы : 2 канала
Расположение каналов : Front: L R
Частота : 48,0 КГц
Битовая глубина : 16 бит
Метод сжатия : С потерями
Размер потока : 159 Мбайт (2%)
Заголовок : MVO (Спб, 5 канал)
Язык : Russian
Default : Да
Forced : Нет

Аудио #2
Идентификатор : 3
Формат : AC-3
Формат/Информация : Audio Coding 3
Расширение режима : CM (complete main)
Параметр Endianness формата : Big
Идентификатор кодека : A_AC3
Продолжительность : 1 ч. 56 м.
Вид битрейта : Постоянный
Битрейт : 192 Кбит/сек
Каналы : 1 канал
Расположение каналов : Front: C
Частота : 48,0 КГц
Битовая глубина : 16 бит
Метод сжатия : С потерями
Размер потока : 159 Мбайт (2%)
Заголовок : Original
Язык : English
Default : Нет
Forced : Нет

Текст #1
Идентификатор : 4
Формат : UTF-8
Идентификатор кодека : S_TEXT/UTF8
Идентификатор кодека/Информация : UTF-8 Plain Text
Заголовок : русский (форсир.)
Язык : Russian
Default : Да
Forced : Да

Текст #2
Идентификатор : 5
Формат : UTF-8
Идентификатор кодека : S_TEXT/UTF8
Идентификатор кодека/Информация : UTF-8 Plain Text
Заголовок : русский
Язык : Russian
Default : Нет
Forced : Нет

Текст #3
Идентификатор : 6
Формат : UTF-8
Идентификатор кодека : S_TEXT/UTF8
Идентификатор кодека/Информация : UTF-8 Plain Text
Заголовок : английский
Язык : English
Default : Нет
Forced : Нет

Меню
00:00:00.000 : :Chapter 01
00:09:59.055 : :Chapter 02
00:19:03.099 : :Chapter 03
00:30:17.104 : :Chapter 04
00:38:37.355 : :Chapter 05
00:52:20.051 : :Chapter 06
00:59:33.860 : :Chapter 07
01:12:14.746 : :Chapter 08
01:22:05.586 : :Chapter 09
01:30:29.715 : :Chapter 10
01:40:52.046 : :Chapter 11
01:54:53.011 : :Chapter 12
01:56:01.703 : :Chapter 13
pb.wtf



Скачать Расцвет мисс Джин Броди через торрент http://i65.fastpic.ru/big/2015/0302/e5/e2aa79d6c1ff05278d05785c40fc86e5.jpg Скачать фильм Расцвет мисс Джин Броди через торрент бесплантно в хорошем качестве Описание: Действие происходит в привилегированной частной школе в Эдинбурге в 1930-х. Преподавательница Джин Броди ведёт класс в ... 5 10 1
Info! Серебряная раздача, засчитывается только 50% скачанного.
Торрент: Зарегистрирован [2015-03-03 07:51] · скачан: 4 раз
Статус: √ проверено
Размер: 6.68 GB
Как cкачать? Как скачать Расцвет мисс Джин Броди через торрент | qTorrent

% Раздел Тема Автор DL S | L
Фильмы [HD 720p, 1080p] (Хороший звук DUB, MVO) [ 16.89 GB ] Расцвет мисс Джин Броди / The Prime of Miss Jean Brodie [1969 BDRip 1080p] MVO msltel Скачать
1 | 0
Фильмы до 2000 г. [ 3.65 GB ] Расцвет мисс Джин Броди / The Prime of Miss Jean Brodie [1969 BDRip-AVC] MVO msltel Скачать
1 | 0

28-11-2019 20:33  

Отключить всю рекламу на сайте

    Дорогой пользователь! Огромная просьба, поблагодарите релизера, оцените раздачу и оставьте свои комментарий, если Вы скачали Расцвет мисс Джин Броди через торрент бесплатно! Внесите свою лепту в развитие PiratBit!
    Комментировать посты могут только пользователи прошедшие не сложную регистрацию
    Показать сообщения:    

    Расцвет мисс Джин Броди через торрент
    Скачать бесплатно Расцвет мисс Джин Броди
    Расцвет мисс Джин Броди скачать торрент
    Расцвет мисс Джин Броди смотреть онлайн
    Cкачать фильм Расцвет мисс Джин Броди бесплатно
    Расцвет мисс Джин Броди скачать торрент в хорошем качестве
    Расцвет мисс Джин Броди смотреть онлайн бесплатно в хорошем качестве


    Вы не можете начинать темы
    Вы не можете отвечать на сообщения
    Вы не можете редактировать свои сообщения
    Вы не можете удалять свои сообщения
    Вы не можете голосовать в опросах
    Вы не можете прикреплять файлы к сообщениям
    Вы можете скачивать файлы