Ссылка на приватное зеркало нашего сайта всего за 1$. Внимание количество ограничено!!!

2 сезон

iTunes

1 сезон

1

2 сезон

2 сезон

iTunes

1 сезон

RePack

30

Новинка

ВАЖНО

ИГРА 18+

pack

RePack

MK11
pack

Забери бонус

RePack

jed

!!Акция!!

Alien_Rage

RePack

fifa19

RePack

Assassins Creed: Odyssey

RePack

NEED FOR SPEED™ PAYBACK

4 сезон

9 сезон

Бесстыжие 9 сезон

Все сериалы

все сериалы на PB.wtf

RePack

FAR CRY 5
  

Пингвины Мадагаскара / Penguins of Madagascar (Эрик Дарнелл, Саймон Дж. Смит) [2014, мультфильм, комедия, приключения, семейный, BDRip 720p / 60 fps] DUB от NNNB pb.wtf

Пингвины Мадагаскара через торрент pb.wtf

Размер: 4.74 GB | Добавлен: 5 лет 8 мес. назад | Торрент скачан:430 раз
Скачать  

03-03-2015 08:07 Пингвины Мадагаскара Скачать торрент  

Информация о фильме
Русское название: Пингвины Мадагаскара
Оригинальное название: Penguins of Madagascar
Год выхода: 2014
Жанр: мультфильм, комедия, приключения, семейный
Режиссер: Эрик Дарнелл, Саймон Дж. Смит
Выпущено: США
Продолжительность: 01:31:49
Перевод: Дублированный
Роли озвучивали: Том МакГрат, Крис Миллер, Кристофер Найтс, Конрад Вернон, Джон Малкович, Бенедикт Камбербэтч, Кен Жонг, Аннет Махендру, Петер Стормаре, Энди Рихтер




Сюжет фильма
Четвёрка пингвинов-шпионов — Шкипер, Ковальски, Рико и Прапор — объединяется с командой «Северный ветер», помогающей беззащитным животным. Им предстоит остановить злобного осьминога, доктора Октавиуса Брайна, желающего уничтожить этот мир…
Файл
Качество: BDRip 720p (исходник Blu-ray Disc Remux)
Видео: 1280x694, 5960 Кбит/сек, 59.940 кадр/сек, AVC, x264, High@L4.1, 1.85:1, 0.112 Бит/[Пиксели*Кадры]
Аудио 1: AC-3, 640 Кбит/сек, 6 канала(ов), 48,0 КГц - Дублированный / Русский
Аудио 2: AC-3, 640 Кбит/сек, 6 канала(ов), 48,0 КГц - Оригинал / Английский
Субтитры: Русские | Полные, Английские | Полные
Форсированные субтитры: Русские
Чаптеры (Главы): Есть[/ul]



Автор Рипа: Сообщество:
Format : Matroska
Format version : Version 2
File size : 4.74 GiB
Duration : 1h 31mn
Overall bit rate : 7 387 Kbps
Movie name : Пингвины Мадагаскара.(2014).BDRip.720p.[envy].[60fps]
Encoded date : UTC 2015-03-02 09:01:23
Writing application : mkvmerge v5.8.0 ('No Sleep / Pillow') built on Sep 2 2012 15:37:04
Writing library : libebml v1.2.3 + libmatroska v1.3.0

Video
ID : 1
Format : AVC
Format/Info : Advanced Video Codec
Format profile : High@L4.1
Format settings, CABAC : Yes
Format settings, ReFrames : 9 frames
Codec ID : V_MPEG4/ISO/AVC
Duration : 1h 31mn
Bit rate : 5 960 Kbps
Width : 1 280 pixels
Height : 694 pixels
Display aspect ratio : 1.85:1
Frame rate mode : Constant
Frame rate : 59.880 fps
Original frame rate : 59.940 fps
Color space : YUV
Chroma subsampling : 4:2:0
Bit depth : 8 bits
Scan type : Progressive
Bits/(Pixel*Frame) : 0.112
Stream size : 3.82 GiB (81%)
Title : Пингвины Мадагаскара.(2014).BDRip.720p.[envy].[60fps]
Writing library : x264 core 130 r2273 b3065e6
Encoding settings : cabac=1 / ref=9 / deblock=1:0:0 / analyse=0x3:0x133 / me=umh / subme=10 / psy=1 / psy_rd=1.00:0.00 / mixed_ref=1 / me_range=32 / chroma_me=1 / trellis=2 / 8x8dct=1 / cqm=0 / deadzone=21,11 / fast_pskip=0 / chroma_qp_offset=-2 / threads=12 / lookahead_threads=2 / sliced_threads=0 / nr=0 / decimate=1 / interlaced=0 / bluray_compat=0 / constrained_intra=0 / bframes=7 / b_pyramid=2 / b_adapt=2 / b_bias=0 / direct=3 / weightb=1 / open_gop=0 / weightp=2 / keyint=250 / keyint_min=25 / scenecut=40 / intra_refresh=0 / rc=crf / mbtree=0 / crf=17.0 / qcomp=0.60 / qpmin=0 / qpmax=69 / qpstep=4 / ip_ratio=1.40 / pb_ratio=1.30 / aq=2:1.00
Language : English
Default : Yes
Forced : No

Audio #1
ID : 2
Format : AC-3
Format/Info : Audio Coding 3
Mode extension : CM (complete main)
Format settings, Endianness : Big
Codec ID : A_AC3
Duration : 1h 31mn
Bit rate mode : Constant
Bit rate : 640 Kbps
Channel(s) : 6 channels
Channel positions : Front: L C R, Side: L R, LFE
Sampling rate : 48.0 KHz
Bit depth : 16 bits
Compression mode : Lossy
Stream size : 420 MiB (9%)
Title : Dub
Language : Russian
Default : Yes
Forced : No

Audio #2
ID : 3
Format : AC-3
Format/Info : Audio Coding 3
Mode extension : CM (complete main)
Format settings, Endianness : Big
Codec ID : A_AC3
Duration : 1h 31mn
Bit rate mode : Constant
Bit rate : 640 Kbps
Channel(s) : 6 channels
Channel positions : Front: L C R, Side: L R, LFE
Sampling rate : 48.0 KHz
Bit depth : 16 bits
Compression mode : Lossy
Stream size : 420 MiB (9%)
Title : Eng
Language : English
Default : No
Forced : No

Text #1
ID : 4
Format : UTF-8
Codec ID : S_TEXT/UTF8
Codec ID/Info : UTF-8 Plain Text
Title : Rus forced
Language : Russian
Default : Yes
Forced : Yes

Text #2
ID : 5
Format : UTF-8
Codec ID : S_TEXT/UTF8
Codec ID/Info : UTF-8 Plain Text
Title : Rus full
Language : Russian
Default : No
Forced : No

Text #3
ID : 6
Format : UTF-8
Codec ID : S_TEXT/UTF8
Codec ID/Info : UTF-8 Plain Text
Title : Eng full
Language : English
Default : No
Forced : No

Menu
00:00:00.000 : en:Chapter 01
00:03:38.000 : en:Chapter 02
00:07:27.000 : en:Chapter 03
00:09:23.000 : en:Chapter 04
00:12:09.000 : en:Chapter 05
00:16:08.000 : en:Chapter 06
00:19:21.000 : en:Chapter 07
00:23:02.000 : en:Chapter 08
00:26:57.000 : en:Chapter 09
00:28:59.000 : en:Chapter 10
00:30:34.000 : en:Chapter 11
00:33:59.000 : en:Chapter 12
00:38:03.000 : en:Chapter 13
00:41:28.000 : en:Chapter 14
00:44:22.000 : en:Chapter 15
00:46:37.000 : en:Chapter 16
00:49:10.000 : en:Chapter 17
00:54:28.000 : en:Chapter 18
00:55:57.000 : en:Chapter 19
01:00:00.000 : en:Chapter 20
01:03:03.000 : en:Chapter 21
01:06:37.000 : en:Chapter 22
01:09:48.000 : en:Chapter 23
01:12:06.000 : en:Chapter 24
01:14:15.000 : en:Chapter 25
01:15:54.000 : en:Chapter 26
01:18:23.000 : en:Chapter 27
01:20:44.000 : en:Chapter 28

ВНИМАНИЕ!!!
Все другие релизы размещеные в сети, похожие размером, настройками, качеством, являются плагиатом и дублированием оригинального файла.
Просто появились "грамотные люди" которые сами нормально сделать не могут, и просто в тупую правят файл, подписывая его своим именем, или группой.
Я думаю вам не без разницы что вы скачиваете, но знайте где появляются релизы с искусственно увеличенной частотой кадров от NNNB
Оригинальные раздачи от группы подписаны так же: "NNNB"pb.wtf



Скачать Пингвины Мадагаскара через торрент http://www.firepic.org/images/2015-03/03/06ks6ydqfub2.png Скачать фильм Пингвины Мадагаскара через торрент бесплантно в хорошем качестве Информация о фильмеРусское название: Пингвины МадагаскараОригинальное название: Penguins of MadagascarГод выхода: 2014Жанр: мультфильм, ... 10 10 8
Торрент: Зарегистрирован [2015-03-03 08:07] · скачан: 430 раз
Статус: √ проверено
Размер: 4.74 GB
Как cкачать? Как скачать Пингвины Мадагаскара через торрент | qTorrent

28-11-2019 20:33  

Отключить всю рекламу на сайте

03-03-2015 13:50 Пингвины Мадагаскара Скачать торрент  

sarcastic :rofle:pb.wtf



    Дорогой пользователь! Огромная просьба, поблагодарите релизера, оцените раздачу и оставьте свои комментарий, если Вы скачали Пингвины Мадагаскара через торрент бесплатно! Внесите свою лепту в развитие PiratBit!
    Комментировать посты могут только пользователи прошедшие не сложную регистрацию
    Показать сообщения:    

    Пингвины Мадагаскара через торрент
    Скачать бесплатно Пингвины Мадагаскара
    Пингвины Мадагаскара скачать торрент
    Пингвины Мадагаскара смотреть онлайн
    Cкачать фильм Пингвины Мадагаскара бесплатно
    Пингвины Мадагаскара скачать торрент в хорошем качестве
    Пингвины Мадагаскара смотреть онлайн бесплатно в хорошем качестве


    Вы не можете начинать темы
    Вы не можете отвечать на сообщения
    Вы не можете редактировать свои сообщения
    Вы не можете удалять свои сообщения
    Вы не можете голосовать в опросах
    Вы не можете прикреплять файлы к сообщениям
    Вы можете скачивать файлы