Ссылка на приватное зеркало всего за 1$. Внимание количество ограничено!!!

OK

1+1

iTunes

мы

OK

1

WEB-DLRip

Джокер

Пифагор

Ведьмак / The Witcher сериал

Лицензия

ПШазам

ОК

Оно 2

iTunes

30
pack

Вам бонус

ВАЖНО

!!Акция!!

Alien_RageХит недели

RePack

Resident Evil 21

ИГРА 18+

pack

RePack

jed

!!Акция!!

Alien_Rage

RePack

fifa19

RePack

Assassins Creed: Odyssey

RePack

NEED FOR SPEED™ PAYBACK

4 сезон

9 сезон

Бесстыжие 9 сезон

Все сериалы

все сериалы на PB.wtf

RePack

FAR CRY 5
  

Горько! (Жора Крыжовников) [2013 г., комедия, BDRip, Лицензия] pb.wtf

Горько! через торрент pb.wtf

Размер: 2.17 GB | Добавлен: 4 года 10 мес. назад | Торрент скачан:585 раз
Скачать  

11-05-2014 15:22 Горько! Скачать торрент  

Горько! Год выпуска: 2013
Страна: Россия / Базелевс Продакшн, Lunapark
Жанр: комедия
Продолжительность: 01:40:43
Тип релиза: Лицензия

Режиссер: Жора Крыжовников

В ролях: Сергей Светлаков, Юлия Александрова, Егор Корешков, Ян Цапник, Елена Валюшкина, Василий Кортуков, Юлия Стадник, Данила Якушев, Александр Паль, Валентина Мазунина

Описание: Прогрессивные и талантливые Наташа и Рома мечтают о европейской свадьбе на берегу моря... но у Наташиного отчима заготовлен другой сценарий. Грубый чиновник городской администрации рассматривает торжество как трамплин для собственной карьеры и стремится устроить все «как надо». Молодых ждет незабываемый вечер в ресторане «Золотой» с полным набором занудных обрядов. Не в силах бороться, ребята решают провести свадьбу своей мечты в секрете от консервативных родственников. Но по нелепой случайности оба торжества сливаются воедино.

Качество: BDRip (Рип с BD-Remux)
Формат: AVI
Видео кодек: XviD
Аудио кодек: AC3
Видео: 720x400 (1.80:1), 24.000 fps, XviD build 50 ~2636 kbps avg, 0.38 bit/pixel
Аудио: 48 kHz, AC3 Dolby Digital, 3/2 (L,C,R,l,r) + LFE ch, ~448 kbps

Общее
Полное имя : H:\кино\Gorko.2013.BDRip.avi
Формат : AVI
Формат/Информация : Audio Video Interleave
Профиль формата : OpenDML
Размер файла : 2,17 Гбайт
Продолжительность : 1 ч. 40 м.
Общий поток : 3091 Кбит/сек
Программа кодирования : VirtualDubMod 1.5.10.3 | www.virtualdub-fr.org || (build 2550/release)
Библиотека кодирования : VirtualDubMod build 2550/release

Видео
Идентификатор : 0
Формат : MPEG-4 Visual
Профиль формата : Advanced Simple@L5
Параметр BVOP формата : 2
Параметр QPel формата : Нет
Параметр GMC формата : Без точки перехода
Параметр матрицы формата : Default (H.263)
Идентификатор кодека : XVID
Идентификатор кодека/Подсказка : XviD
Продолжительность : 1 ч. 40 м.
Битрейт : 2631 Кбит/сек
Ширина : 720 пикселей
Высота : 400 пикселей
Соотношение сторон : 16:9
Частота кадров : 24,000 кадра/сек
Цветовое пространство : YUV
Субдискретизация насыщенности : 4:2:0
Битовая глубина : 8 бит
Тип развёртки : Прогрессивная
Метод сжатия : С потерями
Бит/(Пиксели*Кадры) : 0.381
Размер потока : 1,85 Гбайт (85%)
Библиотека кодирования : XviD 1.2.1 (UTC 2008-12-04)

Аудио
Идентификатор : 1
Формат : AC-3
Формат/Информация : Audio Coding 3
Расширение режима : CM (complete main)
Параметр Endianness формата : Big
Идентификатор кодека : 2000
Продолжительность : 1 ч. 40 м.
Вид битрейта : Постоянный
Битрейт : 448 Кбит/сек
Каналы : 6 каналов
Расположение каналов : Front: L C R, Side: L R, LFE
Частота : 48,0 КГц
Битовая глубина : 16 бит
Метод сжатия : С потерями
Размер потока : 323 Мбайт (14%)
Выравнивание : Разделение по промежуткам
Продолжительность промежутка : 42 мс. (1,00 видеокадр)
Время предзагрузки промежутка : 500 мс.
pb.wtf



Скачать Горько! через торрент http://pic.kartinco.top/images/6/ybq9j.jpg Скачать фильм Горько! через торрент бесплантно в хорошем качестве Описание: Прогрессивные и талантливые Наташа и Рома мечтают о европейской свадьбе на берегу моря... но у Наташиного отчима заготовлен ... 8.6 10 47
Info! Золотая раздача, скачанное не засчитывается.
Торрент: Зарегистрирован [2015-03-03 08:34] · скачан: 585 раз
Статус: √ проверено
Размер: 2.17 GB
Как cкачать? Как скачать Горько! через торрент | qTorrent

% Раздел Тема Автор DL S | L
Фильмы (Blu-ray, BD-Remux, HDDVD) [ 34.42 GB ] Горькая луна / Bitter Moon [1992 BDRemux 1080p] [GER Transfer] DUB + 2xMVO + DVO + 2xAVO - KORSAR kisa1980 Скачать
2 | 0
Фильмы (WEB-DL 720p, 1080p) [ 3.46 GB ] Сто дней в Палермо / Cent jours a Palerme / Cento giorni a Palermo [1984 исторический HDTV 1080i] killermax2013 Скачать
2 | 0
Металл (mp3) [ 100 MB ] Falsegiver - Горький финал 2019 / MP3 / 320 kbps / Nu-Metal Deathcore Metalcore bober100 Скачать
1 | 0
Фильмы до 2000 г. [ 1.46 GB ] Тереза Ракэн / Тереза Ракен / Thérèse Raquin [1953 BDRip] killermax2013 Скачать
1 | 0
Фильмы до 2000 г. [ 1.48 GB ] Сорванец / Kolyok / Kölyök [1959 DVDRip] [Советская прокатная копия] killermax2013 Скачать
1 | 0
Детективы, Боевики, Триллеры [ 693 MB ] Александра Маринина - Горький квест. Том 3 [Игорь Князев 2018 128 kbps MP3] oleg8 Скачать
1 | 0
Зарубежные сериалы [ 2.1 GB ] Сладко/горько / Sweetbitter / Сезон: 1 / Серии: 1-6 из 6 [2018 WEBRip] [MVO] killermax2013 Скачать
1 | 0

28-11-2019 20:33  

Отключить всю рекламу на сайте

11-05-2014 18:28 Горько! Скачать торрент  

Добротный отечественный шлак. pb.wtf



11-05-2014 19:49 Горько! Скачать торрент  

fire13 писал(а):

Добротный отечественный шлак.

На вкус и цвет товарищей нет!
Мне фильм понравился, было смешно. конкурент самому лучшему фильму.
на 7 потянет)pb.wtf



14-05-2014 09:46 Горько! Скачать торрент  

fire13 писал(а):

Добротный отечественный шлак.

Полностью поддержу. Очередное Российское г....но.pb.wtf



03-03-2015 09:51 Горько! Скачать торрент  

Говнищеpb.wtf



03-03-2015 11:56 Горько! Скачать торрент  

нечто среднее между "фуфлом" и "го...м"pb.wtf



05-03-2015 19:54 Горько! Скачать торрент  

и что-даже лицо Билайна не помогло?pb.wtf



05-09-2016 17:28 Горько! Скачать торрент  

Фильм-бомба.Смеялись до слёз.pb.wtf



    Дорогой пользователь! Огромная просьба, поблагодарите релизера, оцените раздачу и оставьте свои комментарий, если Вы скачали Горько! через торрент бесплатно! Внесите свою лепту в развитие PiratBit!
    Комментировать посты могут только пользователи прошедшие не сложную регистрацию
    Показать сообщения:    

    Горько! через торрент
    Скачать бесплатно Горько!
    Горько! скачать торрент
    Горько! смотреть онлайн
    Cкачать фильм Горько! бесплатно
    Горько! скачать торрент в хорошем качестве
    Горько! смотреть онлайн бесплатно в хорошем качестве


    Вы не можете начинать темы
    Вы не можете отвечать на сообщения
    Вы не можете редактировать свои сообщения
    Вы не можете удалять свои сообщения
    Вы не можете голосовать в опросах
    Вы не можете прикреплять файлы к сообщениям
    Вы можете скачивать файлы