Ссылка на приватное зеркало нашего сайта всего за 1$. Внимание количество ограничено!!!

2 сезон

iTunes

1 сезон

1

2 сезон

2 сезон

iTunes

1 сезон

RePack

30

Ultimate

ВАЖНО

ИГРА 18+

pack

RePack

MK11
pack

Забери бонус

RePack

jed

!!Акция!!

Alien_Rage

RePack

fifa19

RePack

Assassins Creed: Odyssey

RePack

NEED FOR SPEED™ PAYBACK

4 сезон

9 сезон

Бесстыжие 9 сезон

Все сериалы

все сериалы на PB.wtf

RePack

FAR CRY 5
  

Восприятие / Perception (сезон 3, серии 1-10 из 14)(Грег Биман, Кеннет Биллер, Крис Мисиано) [2014 г., драма, криминал, детектив, WEB-DLRip 720p,]MVO(To4ka)+Original pb.wtf

Восприятие через торрент pb.wtf

Размер: 14.16 GB | Добавлен: 5 лет 8 мес. назад | Торрент скачан:43 раза
Скачать  

04-03-2015 08:09 Восприятие Скачать торрент  


Восприятие / Perception
Год выпуска: 2014
Страна: США
Жанр: драма, криминал, детектив
Продолжительность: ~00:43:00
Перевод: Любительский многоголосый

Режиссер: Грег Биман, Кеннет Биллер, Крис Мисиано



В ролях: Эрик МакКормак, Рэйчел Ли Кук, Келли Роуэн, Эрджей Смит, Джонатан Скарф, Кристофер Чен, Лиза Бейнс, Джимми Беннетт, Бриджет Риган, ЛеВар Бёртон и др.

Описание: Доктор Дэниел Пирс — талантливый, но эксцентричный нейрофизиолог, которого пригласили в ФБР для оказания помощи в расследовании наиболее сложных дел. Доктор Пирс работает в тесном сотрудничестве с Кейт Моретти, бывшей студенткой, которая и завербовала его для работы с Бюро. Также в команде есть Макс Левики — ассистент доктора Пирса и Натали Винсент — его лучший друг.

Качество: WEB-DLRip 720p
Формат: MKV
Видео кодек: AVC
Аудио кодек: AC3
Видео: 1280x720 (16:9), 23.976 fps, 3 636 Kbps (0.165 bit/pixel)
Аудио#1: 48.0 KHz, 6 ch, 384 Kbps, CBR (Russian)
Аудио#2: 48.0 KHz, 6 ch, 384 Kbps, CBR (English)
Релиз от:
Общее
Уникальный идентификатор : 235951137628338266954411339563126252513 (0xB1828940475895D1847977984D1C63E1)
Полное имя : E:\Сериалы\Восприятие Perception\Восприятие (сезон 3) 720р\Perception.s03e01.WEB-DL.720p.Rus.Eng.To4ka.TV.mkv
Формат : Matroska
Версия формата : Version 1
Размер файла : 1,51 Гбайт
Продолжительность : 43 м.
Общий поток : 5034 Кбит/сек
Дата кодирования : UTC 2014-07-08 15:34:17
Программа кодирования : mkvmerge v2.0.0 ('After The Rain Has Fallen') built on Jan 13 2007 19:58:56
Библиотека кодирования : libebml v0.7.7 + libmatroska v0.8.0

Видео
Идентификатор : 1
Формат : AVC
Формат/Информация : Advanced Video Codec
Профиль формата : High@L3.1
Параметр CABAC формата : Нет
Параметр ReFrames формата : 2 кадра
Идентификатор кодека : V_MPEG4/ISO/AVC
Продолжительность : 43 м.
Битрейт : 4166 Кбит/сек
Ширина : 1280 пикселей
Высота : 720 пикселей
Соотношение сторон : 16:9
Режим частоты кадров : Постоянный
Частота кадров : 23,976 кадра/сек
Цветовое пространство : YUV
Субдискретизация насыщенности : 4:2:0
Битовая глубина : 8 бит
Тип развёртки : Прогрессивная
Бит/(Пиксели*Кадры) : 0.189
Размер потока : 1,25 Гбайт (83%)
Язык : English
Default : Да
Forced : Нет
Основные цвета : BT.709
Характеристики трансфера : BT.709
Коэффициенты матрицы : BT.709
colour_range : Limited

Аудио #1
Идентификатор : 2
Формат : AC-3
Формат/Информация : Audio Coding 3
Расширение режима : CM (complete main)
Параметр Endianness формата : Big
Идентификатор кодека : A_AC3
Продолжительность : 43 м.
Вид битрейта : Постоянный
Битрейт : 384 Кбит/сек
Каналы : 6 каналов
Расположение каналов : Front: L C R, Side: L R, LFE
Частота : 48,0 КГц
Битовая глубина : 16 бит
Метод сжатия : С потерями
Размер потока : 118 Мбайт (8%)
Заголовок : To4ka.TV
Язык : Russian
Default : Да
Forced : Нет

Аудио #2
Идентификатор : 3
Формат : AC-3
Формат/Информация : Audio Coding 3
Расширение режима : CM (complete main)
Параметр Endianness формата : Big
Идентификатор кодека : A_AC3
Продолжительность : 43 м.
Вид битрейта : Постоянный
Битрейт : 384 Кбит/сек
Каналы : 6 каналов
Расположение каналов : Front: L C R, Side: L R, LFE
Частота : 48,0 КГц
Битовая глубина : 16 бит
Метод сжатия : С потерями
Размер потока : 118 Мбайт (8%)
Язык : English
Default : Нет
Forced : Нет

Внимание! Раздача ведётся путём добавления новых серий; при каждом добавлении создаётся новый торрент. Чтобы начать докачку новой серии, пользователям необходимо сделать следующее: (1) остановить скачивание, (2) удалить старый торрент у себя из клиента (старые серии удалять не надо), (3) скачать новый торрент и запустить его у себя в клиенте вместо старого, при этом указать клиенту путь в старую папку куда и должно происходить скачивание новых серий.
Ваш клиент при этом должен произвести хеширование (проверку) старой папки (если не производит сам - помогите ему сделать это), и будет докачивать только те серии которых у вас ещё нет. Старые серии при этом не удаляются, а продолжают раздаваться!
Eсли вы уже удалили старые серии, то предотвратить повторную закачку старых серий можно, отжав галочку в соответствующих местах при запуске нового торрента.
pb.wtf



Скачать Восприятие через торрент http://pic1.kartinco.top/images/10/27144.jpg Скачать фильм Восприятие через торрент бесплантно в хорошем качестве Описание: Доктор Дэниел Пирс — талантливый, но эксцентричный нейрофизиолог, которого пригласили в ФБР для оказания помощи в расследовании ... 10 10 3
Info! Золотая раздача, скачанное не засчитывается.
Торрент: Зарегистрирован [2015-03-04 08:09] · скачан: 43 раз
Статус: √ проверено
Размер: 14.16 GB
Как cкачать? Как скачать Восприятие через торрент | qTorrent

% Раздел Тема Автор DL S | L
Зарубежные сериалы [ 4.4 GB ] Восприятие / Perception / Сезон: 1 / Серии: 1-10 [2012 WEB-DLRip]MVO+ Original+Sub Assasinca Скачать
1 | 0
Зарубежные сериалы [ 6.16 GB ] Восприятие / Perception / Сезон: 2 / Серии: 1-14 [2013 WEB-DLRip]MVO+ Original+Sub Assasinca Скачать
1 | 0

28-11-2019 20:33  

Отключить всю рекламу на сайте

05-04-2015 20:22 Восприятие Скачать торрент  

Ушлёпки!!! такой прикольнй сериал закрыли!((

"Руководство телеканала TNT официально заявило, что новых серий у проекта «Восприятие» не будет. Зрители, которые ожидали увидеть 4 сезон в 2015 году, очень расстроены закрытием сериала, но решение правообладателей окончательное и не подлежит пересмотру."pb.wtf



    Дорогой пользователь! Огромная просьба, поблагодарите релизера, оцените раздачу и оставьте свои комментарий, если Вы скачали Восприятие через торрент бесплатно! Внесите свою лепту в развитие PiratBit!
    Комментировать посты могут только пользователи прошедшие не сложную регистрацию
    Показать сообщения:    

    Восприятие через торрент
    Скачать бесплатно Восприятие
    Восприятие скачать торрент
    Восприятие смотреть онлайн
    Cкачать фильм Восприятие бесплатно
    Восприятие скачать торрент в хорошем качестве
    Восприятие смотреть онлайн бесплатно в хорошем качестве


    Вы не можете начинать темы
    Вы не можете отвечать на сообщения
    Вы не можете редактировать свои сообщения
    Вы не можете удалять свои сообщения
    Вы не можете голосовать в опросах
    Вы не можете прикреплять файлы к сообщениям
    Вы можете скачивать файлы