Ссылка на приватное зеркало нашего сайта всего за 1$. Внимание количество ограничено!!!

2 сезон

iTunes

1 сезон

1

iTunes

iTunes

iTunes

1 сезон

RePack

30

ИГРА 18+

pack

ВАЖНО

!!Акция!!

Alien_RageХит недели

RePack

MK11
pack

Забери бонус

RePack

jed

!!Акция!!

Alien_Rage

RePack

fifa19

RePack

Assassins Creed: Odyssey

RePack

NEED FOR SPEED™ PAYBACK

4 сезон

9 сезон

Бесстыжие 9 сезон

Все сериалы

все сериалы на PB.wtf

RePack

FAR CRY 5
  

Медвежатник / The Score (Фрэнк Оз) [2001, боевик, триллер, криминал, BDRip 720p] 2 x MVO, 3 x AVO pb.wtf

Медвежатник через торрент pb.wtf

Размер: 11.33 GB | Добавлен: 5 лет 7 мес. назад | Торрент скачан:69 раз
Скачать  

04-03-2015 08:15 Медвежатник Скачать торрент  

Медвежатник / The Score

Год выпуска: 2001
Страна: США, Германия
Жанр: боевик, триллер, криминал
Продолжительность: 02:04:06
Перевод: профессиональный многоголосый, авторский
Субтитры: русские, английские (все отдельно)

Режиссёр: Фрэнк Оз

В ролях: Роберт Де Ниро, Эдвард Нортон, Марлон Брандо, Анджела Бассетт, Пол Соулз, Гэри Фармер, Джейми Харролд, Ричард Во, Марк Камачо, Джеймс Спэйдер, Лесли Стефансон, Джон Ливингстон, Кристиан Тессьер, Роберт Миано, Альф Хамфриз, Тим Генри, Ричард Земан, Скотт Хайндл, Алекс Захара, Алвин Сандерс, Морис Демерс, Синди Мэйнс, Кэрин Коновал, Леонард Джордж, Ричард Ян Кокс, Кэтрин Керкпатрик, Тин Труонг Нгуйен, Дэнни Уэттли, Джей Крамер, Майкл Робердс, Элан Росс Гибсон, Пьер Дролет, Кеннет Дж. МакИнтайр, Эллен Кеннеди, Далиас Блэйк, Кит Даллас, Серж Уд, Мартин Дрэйнвилл, Лиза Мари Блэр, Дэвид Л. МакКаллум, Анджело Царучас, Эндрю Уокер

Описание: Ник Уэллс - профессиональный вор, решивший отойти от дел после того, как его чуть было не поймали во время последнего дела. Теперь он живёт в Монреале, владеет джаз-клубом и наслаждается жизнью со своей невестой. Однако бывший партнёр по нелегальному бизнесу предлагает Нику выкрасть старинный и бесценный французский скипетр, перед отправкой во Францию хранящийся в монреальской таможне. Нику придётся работать в паре с молодым и агрессивным вором Джеком Теллером, который собирается сделать всё возможное, чтобы после этого дела Ник остался ни с чем...



Качество: BDRip 720p Сравнение с исходником
Формат: MKV
Видео кодек: H.264
Аудио кодек: AC3, DTS
Видео: 4217 Кбит/с, 1280x544, 23.976 кадра/с, 0.253 bpp
Аудио 1: русский, AC3, 448 kbps, 6 ch, 48 kHz [профессиональный многоголосый, Позитив-Мультимедиа]
Аудио 2: русский, AC3, 448 kbps, 6 ch, 48 kHz [профессиональный многоголосый]
Аудио 3: русский, AC3, 448 kbps, 6 ch, 48 kHz [авторский, Андрей Гаврилов]
Аудио 4: русский, AC3, 448 kbps, 6 ch, 48 kHz [авторский, Василий Горчаков]
Аудио 5: русский, AC3, 448 kbps, 6 ch, 48 kHz [авторский, Юрий Живов]

Отдельные файлы
Аудио: русский, DTS, 1509 kbps, 6 ch, 48 kHz [профессиональный многоголосый, Позитив-Мультимедиа]
Аудио: русский, DTS, 1509 kbps, 6 ch, 48 kHz [авторский, Андрей Гаврилов]
Аудио: русский, DTS, 1509 kbps, 6 ch, 48 kHz [авторский, Василий Горчаков]
Аудио: русский, DTS, 1509 kbps, 6 ch, 48 kHz [авторский, Юрий Живов]
Аудио: английский, AC3, 448 kbps, 6 ch, 48 kHz [оригинал]

Имеются неименованные главы/чаптеры.
frame I:1186 Avg QP:16.81 size:101273
frame P:35922 Avg QP:18.08 size: 45283
frame B:141428 Avg QP:19.93 size: 16248

Общее
Полное имя : D:VideoMedvegatnik.2001.BDRip.720pMedvegatnik.2001.AVO.rus.А.Гаврилов.dts
Формат : DTS
Формат/Информация : Digital Theater Systems
Размер файла : 1,31 Гбайт
Продолжительность : 2 ч. 4 м.
Режим общего битрейта : Постоянный
Общий поток : 1509 Кбит/сек

Аудио
Формат : DTS
Формат/Информация : Digital Theater Systems
Режим : 16
Параметр Endianness формата : Big
Продолжительность : 2 ч. 4 м.
Вид битрейта : Постоянный
Битрейт : 1509 Кбит/сек
Каналы : 6 каналов
Расположение каналов : Front: L C R, Side: L R, LFE
Частота : 48,0 КГц
Битовая глубина : 24 бит
Метод сжатия : С потерями
Размер потока : 1,31 Гбайт

Общее
Полное имя : D:VideoMedvegatnik.2001.BDRip.720pMedvegatnik.2001.AVO.rus.В.Горчаков.dts
Формат : DTS
Формат/Информация : Digital Theater Systems
Размер файла : 1,31 Гбайт
Продолжительность : 2 ч. 4 м.
Режим общего битрейта : Постоянный
Общий поток : 1509 Кбит/сек

Аудио
Формат : DTS
Формат/Информация : Digital Theater Systems
Режим : 16
Параметр Endianness формата : Big
Продолжительность : 2 ч. 4 м.
Вид битрейта : Постоянный
Битрейт : 1509 Кбит/сек
Каналы : 6 каналов
Расположение каналов : Front: L C R, Side: L R, LFE
Частота : 48,0 КГц
Битовая глубина : 24 бит
Метод сжатия : С потерями
Размер потока : 1,31 Гбайт

Общее
Полное имя : D:VideoMedvegatnik.2001.BDRip.720pMedvegatnik.2001.AVO.rus.Ю.Живов.dts
Формат : DTS
Формат/Информация : Digital Theater Systems
Размер файла : 1,31 Гбайт
Продолжительность : 2 ч. 4 м.
Режим общего битрейта : Постоянный
Общий поток : 1509 Кбит/сек

Аудио
Формат : DTS
Формат/Информация : Digital Theater Systems
Режим : 16
Параметр Endianness формата : Big
Продолжительность : 2 ч. 4 м.
Вид битрейта : Постоянный
Битрейт : 1509 Кбит/сек
Каналы : 6 каналов
Расположение каналов : Front: L C R, Side: L R, LFE
Частота : 48,0 КГц
Битовая глубина : 24 бит
Метод сжатия : С потерями
Размер потока : 1,31 Гбайт

Общее
Уникальный идентификатор : 206520485585333316160961653038421059833 (0x9B5E661349D8BC1189546F23294328F9)
Полное имя : D:VideoMedvegatnik.2001.BDRip.720pMedvegatnik.2001.BDRip.720p.mkv
Формат : Matroska
Версия формата : Version 4 / Version 2
Размер файла : 5,71 Гбайт
Продолжительность : 2 ч. 4 м.
Общий поток : 6588 Кбит/сек
Дата кодирования : UTC 2015-03-04 03:50:08
Программа кодирования : mkvmerge v7.7.0 ('Six Voices') 64bit built on Feb 28 2015 23:39:33
Библиотека кодирования : libebml v1.3.1 + libmatroska v1.4.2
DURATION : 02:04:06.432000000
NUMBER_OF_FRAMES : 232701
NUMBER_OF_BYTES : 417000192
_STATISTICS_WRITING_APP : mkvmerge v7.7.0 ('Six Voices') 64bit built on Feb 28 2015 23:39:33
_STATISTICS_WRITING_DATE_UTC : 2015-03-04 03:50:08
_STATISTICS_TAGS : BPS DURATION NUMBER_OF_FRAMES NUMBER_OF_BYTES

Видео
Идентификатор : 1
Формат : AVC
Формат/Информация : Advanced Video Codec
Профиль формата : High@L4.1
Параметр CABAC формата : Да
Параметр ReFrames формата : 9 кадров
Идентификатор кодека : V_MPEG4/ISO/AVC
Продолжительность : 2 ч. 4 м.
Битрейт : 4217 Кбит/сек
Ширина : 1280 пикселей
Высота : 544 пикселя
Соотношение сторон : 2,35:1
Режим частоты кадров : Постоянный
Частота кадров : 23,976 кадра/сек
Цветовое пространство : YUV
Субдискретизация насыщенности : 4:2:0
Битовая глубина : 8 бит
Тип развёртки : Прогрессивная
Бит/(Пиксели*Кадры) : 0.253
Размер потока : 3,66 Гбайт (64%)
Заголовок : BDRip -- STarankov
Библиотека кодирования : x264 core 142 r2431 ac76440
Настройки программы : cabac=1 / ref=9 / deblock=1:-2:-2 / analyse=0x3:0x113 / me=umh / subme=9 / psy=1 / psy_rd=1.00:0.15 / mixed_ref=1 / me_range=32 / chroma_me=1 / trellis=2 / 8x8dct=1 / cqm=0 / deadzone=21,11 / fast_pskip=1 / chroma_qp_offset=-3 / threads=6 / lookahead_threads=1 / sliced_threads=0 / nr=0 / decimate=1 / interlaced=0 / bluray_compat=0 / constrained_intra=0 / bframes=8 / b_pyramid=2 / b_adapt=2 / b_bias=0 / direct=3 / weightb=1 / open_gop=0 / weightp=2 / keyint=230 / keyint_min=23 / scenecut=40 / intra_refresh=0 / rc_lookahead=40 / rc=crf / mbtree=0 / crf=19.0 / qcomp=0.60 / qpmin=0 / qpmax=69 / qpstep=4 / vbv_maxrate=40000 / vbv_bufsize=50000 / crf_max=0.0 / nal_hrd=none / filler=0 / ip_ratio=1.40 / pb_ratio=1.30 / aq=1:1.00
Язык : English
Default : Да
Forced : Нет
DURATION : 02:04:06.439000000
NUMBER_OF_FRAMES : 178536
NUMBER_OF_BYTES : 4044739928
_STATISTICS_WRITING_APP : mkvmerge v7.7.0 ('Six Voices') 64bit built on Feb 28 2015 23:39:33
_STATISTICS_WRITING_DATE_UTC : 2015-03-04 03:50:08
_STATISTICS_TAGS : BPS DURATION NUMBER_OF_FRAMES NUMBER_OF_BYTES

Аудио #1
Идентификатор : 2
Формат : AC-3
Формат/Информация : Audio Coding 3
Расширение режима : CM (complete main)
Параметр Endianness формата : Big
Идентификатор кодека : A_AC3
Продолжительность : 2 ч. 4 м.
Вид битрейта : Постоянный
Битрейт : 448 Кбит/сек
Каналы : 6 каналов
Расположение каналов : Front: L C R, Side: L R, LFE
Частота : 48,0 КГц
Битовая глубина : 16 бит
Метод сжатия : С потерями
Размер потока : 398 Мбайт (7%)
Заголовок : MVO (Позитив-Мультимедиа)
Язык : Russian
Default : Да
Forced : Нет

Аудио #2
Идентификатор : 3
Формат : AC-3
Формат/Информация : Audio Coding 3
Расширение режима : CM (complete main)
Параметр Endianness формата : Big
Идентификатор кодека : A_AC3
Продолжительность : 2 ч. 4 м.
Вид битрейта : Постоянный
Битрейт : 448 Кбит/сек
Каналы : 6 каналов
Расположение каналов : Front: L C R, Side: L R, LFE
Частота : 48,0 КГц
Битовая глубина : 16 бит
Метод сжатия : С потерями
Размер потока : 398 Мбайт (7%)
Заголовок : MVO
Язык : Russian
Default : Нет
Forced : Нет

Аудио #3
Идентификатор : 4
Формат : AC-3
Формат/Информация : Audio Coding 3
Расширение режима : CM (complete main)
Параметр Endianness формата : Big
Идентификатор кодека : A_AC3
Продолжительность : 2 ч. 4 м.
Вид битрейта : Постоянный
Битрейт : 448 Кбит/сек
Каналы : 6 каналов
Расположение каналов : Front: L C R, Side: L R, LFE
Частота : 48,0 КГц
Битовая глубина : 16 бит
Метод сжатия : С потерями
Размер потока : 398 Мбайт (7%)
Заголовок : AVO (Андрей Гаврилов)
Язык : Russian
Default : Нет
Forced : Нет

Аудио #4
Идентификатор : 5
Формат : AC-3
Формат/Информация : Audio Coding 3
Расширение режима : CM (complete main)
Параметр Endianness формата : Big
Идентификатор кодека : A_AC3
Продолжительность : 2 ч. 4 м.
Вид битрейта : Постоянный
Битрейт : 448 Кбит/сек
Каналы : 6 каналов
Расположение каналов : Front: L C R, Side: L R, LFE
Частота : 48,0 КГц
Битовая глубина : 16 бит
Метод сжатия : С потерями
Размер потока : 398 Мбайт (7%)
Заголовок : AVO (Василий Горчаков)
Язык : Russian
Default : Нет
Forced : Нет

Аудио #5
Идентификатор : 6
Формат : AC-3
Формат/Информация : Audio Coding 3
Расширение режима : CM (complete main)
Параметр Endianness формата : Big
Идентификатор кодека : A_AC3
Продолжительность : 2 ч. 4 м.
Вид битрейта : Постоянный
Битрейт : 448 Кбит/сек
Каналы : 6 каналов
Расположение каналов : Front: L C R, Side: L R, LFE
Частота : 48,0 КГц
Битовая глубина : 16 бит
Метод сжатия : С потерями
Размер потока : 398 Мбайт (7%)
Заголовок : AVO (Юрий Живов)
Язык : Russian
Default : Нет
Forced : Нет

Меню
00:00:00.000 : en:00:00:00.000
00:10:34.342 : en:00:10:34.342
00:16:47.215 : en:00:16:47.215
00:22:11.664 : en:00:22:11.664
00:32:47.591 : en:00:32:47.591
00:37:43.803 : en:00:37:43.803
00:46:34.834 : en:00:46:34.834
00:57:19.603 : en:00:57:19.603
01:05:02.857 : en:01:05:02.857
01:09:59.821 : en:01:09:59.821
01:18:38.797 : en:01:18:38.797
01:26:06.745 : en:01:26:06.745
01:35:49.243 : en:01:35:49.243
01:45:18.979 : en:01:45:18.979
01:54:36.703 : en:01:54:36.703

Общее
Полное имя : D:VideoMedvegatnik.2001.BDRip.720pMedvegatnik.2001.eng.srt
Формат : SubRip
Размер файла : 79,5 Кбайт

Текст
Формат : SubRip
Метод сжатия : Без потерь

Общее
Полное имя : D:VideoMedvegatnik.2001.BDRip.720pMedvegatnik.2001.MVO.rus.Позитив-Мультимедиа.dts
Формат : DTS
Формат/Информация : Digital Theater Systems
Размер файла : 1,31 Гбайт
Продолжительность : 2 ч. 4 м.
Режим общего битрейта : Постоянный
Общий поток : 1509 Кбит/сек

Аудио
Формат : DTS
Формат/Информация : Digital Theater Systems
Режим : 16
Параметр Endianness формата : Big
Продолжительность : 2 ч. 4 м.
Вид битрейта : Постоянный
Битрейт : 1509 Кбит/сек
Каналы : 6 каналов
Расположение каналов : Front: L C R, Side: L R, LFE
Частота : 48,0 КГц
Битовая глубина : 24 бит
Метод сжатия : С потерями
Размер потока : 1,31 Гбайт

Общее
Полное имя : D:VideoMedvegatnik.2001.BDRip.720pMedvegatnik.2001.Original.eng.ac3
Формат : AC-3
Формат/Информация : Audio Coding 3
Размер файла : 398 Мбайт
Продолжительность : 2 ч. 4 м.
Режим общего битрейта : Постоянный
Общий поток : 448 Кбит/сек

Аудио
Формат : AC-3
Формат/Информация : Audio Coding 3
Расширение режима : CM (complete main)
Параметр Endianness формата : Big
Продолжительность : 2 ч. 4 м.
Вид битрейта : Постоянный
Битрейт : 448 Кбит/сек
Каналы : 6 каналов
Расположение каналов : Front: L C R, Side: L R, LFE
Частота : 48,0 КГц
Битовая глубина : 16 бит
Метод сжатия : С потерями
Размер потока : 398 Мбайт (100%)

Общее
Полное имя : D:VideoMedvegatnik.2001.BDRip.720pMedvegatnik.2001.rus.srt
Формат : SubRip
Размер файла : 110 Кбайт

Текст
Формат : SubRip
Метод сжатия : Без потерь
pb.wtf



Скачать Медвежатник через торрент http://i65.fastpic.ru/big/2015/0304/a4/e9e1d7d4ab8a086dddec7997724526a4.jpg Скачать фильм Медвежатник через торрент бесплантно в хорошем качестве Описание: Ник Уэллс - вор, решивший отойти от дел после того, как его чуть было не поймали во время последнего дела. ... 8.2 10 5
Торрент: Зарегистрирован [2015-03-04 08:15] · скачан: 69 раз
Статус: √ проверено
Размер: 11.33 GB
Как cкачать? Как скачать Медвежатник через торрент | qTorrent

% Раздел Тема Автор DL S | L
Фильмы [HD 720p, 1080p] (Хороший звук DUB, MVO) [ 17.34 GB ] Медвежатник / The Score [2001 BDRip 1080p] 2 x MVO 3 x AVO msltel Скачать
1 | 0
Фильмы 2001-2005 [ 3.95 GB ] Медвежатник / The Score [2001 BDRip-AVC] 2 x MVO 3 x AVO msltel Скачать
1 | 0

28-11-2019 20:33  

Отключить всю рекламу на сайте

    Дорогой пользователь! Огромная просьба, поблагодарите релизера, оцените раздачу и оставьте свои комментарий, если Вы скачали Медвежатник через торрент бесплатно! Внесите свою лепту в развитие PiratBit!
    Комментировать посты могут только пользователи прошедшие не сложную регистрацию
    Показать сообщения:    

    Медвежатник через торрент
    Скачать бесплатно Медвежатник
    Медвежатник скачать торрент
    Медвежатник смотреть онлайн
    Cкачать фильм Медвежатник бесплатно
    Медвежатник скачать торрент в хорошем качестве
    Медвежатник смотреть онлайн бесплатно в хорошем качестве


    Вы не можете начинать темы
    Вы не можете отвечать на сообщения
    Вы не можете редактировать свои сообщения
    Вы не можете удалять свои сообщения
    Вы не можете голосовать в опросах
    Вы не можете прикреплять файлы к сообщениям
    Вы можете скачивать файлы