Всегда рабочее зеркало без VPN и Proxy просто перед .vidak.icu напиши любое слово или цифру, Пример http://drn8.vidak.icu

Лицензия

MVO

1 сезон

1

1 сезон

iTunes

1 сезон

13

1 сезон

Deluxe

pack

Рекомендуем

Repack

30

ВАЖНО

RePack

MK11

RePack

jed

RePack

fifa19

RePack

RDR2

RePack

NEED FOR SPEED™ PAYBACK

Кинопоиск HD

6 сезон

 Острые козырьки 6 сезон

Все сериалы

все сериалы на PB.wtf

RePack

FAR CRY 5
  
Magnet ссылка

Дикая природа Джеймса / All the Wilderness (Майкл Джонсон / Michael Johnson) [2014, США, драма, WEB-DLRip, Любительский (одноголосый)] pb.wtf

Дикая природа Джеймса через торрент pb.wtf

Размер: 1.35 GB | Добавлен: 7 лет 5 мес. назад | Торрент скачан:40 раз
Смотреть онлайн Дикая природа Джеймса | Скачать    Ребята, помогите собрать деньги на оплату серверов!!!

04-03-2015 19:05 Дикая природа Джеймса Скачать торрент  

Дикая природа Джеймса / All the Wilderness

Год выпуска: 2014
Страна: США
Жанр: драма
Продолжительность: 01:16:29
Перевод: Любительский (одноголосый)
Субтитры: Отсутствует
Режиссер: Майкл Джонсон / Michael Johnson
В ролях:


Коди Смит-МакФи (James Charm), Вирджиния Мэдсен (Abigail Charm), Изабель Фурман (Val), Ивэн Росс (Harmon), Дэнни ДеВито (Dr. Pembry), Ханна Бэйрфут (Crystal), Джейкоб Блок (Black hooded figure / passerby), Табор Хелтон (William Charm), Брэйди Джеймс (Boy with Toy Truck), Пэт Яновски (Carolyn), Симос Каливас (Homeless Transient), Брент Кублик (Black-Hooded Figure)

Описание:
История о непоседливом подростке, который решает исследовать дикую местность своего города, страдая из-за отсутствия отца.

Рейтинг:

Качество: WEB-DLRip
Формат: AVI
Видео кодек:XviD
Аудио кодек:AC3
Видео: XviD, 720x304 (2.35:1), 1965 kbps, 23,976 fps, 0,375 bpp
Аудио: AC3 / 5.1 / 48 kHz / 448 kbps / 16 bit - Любительский одноголосый [Павел Морозов aka PashaUp]

General
Complete name : D:\_uTorrent_\All.the.Wilderness.2014.L1.WEBDLRip.avi
Format : AVI
Format/Info : Audio Video Interleave
File size : 1.35 GiB
Duration : 1h 16mn
Overall bit rate : 2 522 Kbps
Writing application : VirtualDubMod 1.5.10.3 | www.virtualdub-fr.org || (build 2550/release)
Writing library : VirtualDubMod build 2550/release

Video
ID : 0
Format : MPEG-4 Visual
Format profile : Advanced [email protected]
Format settings, BVOP : 2
Format settings, QPel : No
Format settings, GMC : No warppoints
Format settings, Matrix : Default (H.263)
Muxing mode : Packed bitstream
Codec ID : XVID
Codec ID/Hint : XviD
Duration : 1h 16mn
Bit rate : 1 966 Kbps
Width : 720 pixels
Height : 304 pixels
Display aspect ratio : 2.35:1
Frame rate : 23.976 fps
Color space : YUV
Chroma subsampling : 4:2:0
Bit depth : 8 bits
Scan type : Progressive
Compression mode : Lossy
Bits/(Pixel*Frame) : 0.375
Stream size : 1.05 GiB (78%)
Writing library : XviD 64

Audio
ID : 1
Format : AC-3
Format/Info : Audio Coding 3
Mode extension : CM (complete main)
Codec ID : 2000
Duration : 1h 16mn
Bit rate mode : Constant
Bit rate : 448 Kbps
Channel(s) : 6 channels
Channel positions : Front: L C R, Side: L R, LFE
Sampling rate : 48.0 KHz
Bit depth : 16 bits
Compression mode : Lossy
Stream size : 245 MiB (18%)
Alignment : Split accross interleaves

[/code]
pb.wtf



Скачать Дикая природа Джеймса через торрент http://i66.fastpic.ru/big/2015/0304/e2/9d03e19851aa4b0f6bc55a16b84d58e2.png Скачать, смотреть онлайн Дикая природа Джеймса бесплантно в хорошем качестве Описание: История о непоседливом подростке, который решает исследовать дикую местность своего города, страдая из-за отсутствия ... 9.3 10 3
Торрент: Зарегистрирован [2015-03-04 19:05] · скачан: 40 раз
Статус: T временная
Размер: 1.35 GB
Как cкачать? Как скачать Дикая природа Джеймса через торрент | UTorrent

28-11-2019 20:33  

Отключить вcю реклaмy на сайте

    Дорогой пользователь! Огромная просьба, поблагодарите релизера, оцените раздачу и оставьте свои комментарий, если Вы скачали Дикая природа Джеймса через торрент бесплатно!
    Комментировать посты могут только пользователи прошедшие не сложную регистрацию
    Показать сообщения:    

    Дикая природа Джеймса через торрент
    Скачать бесплатно Дикая природа Джеймса
    Дикая природа Джеймса скачать торрент
    Дикая природа Джеймса смотреть онлайн
    Cкачать фильм Дикая природа Джеймса бесплатно
    Дикая природа Джеймса скачать торрент в хорошем качестве
    Дикая природа Джеймса смотреть онлайн бесплатно в хорошем качестве


    Вы не можете начинать темы
    Вы не можете отвечать на сообщения
    Вы не можете редактировать свои сообщения
    Вы не можете удалять свои сообщения
    Вы не можете голосовать в опросах
    Вы не можете прикреплять файлы к сообщениям
    Вы можете скачивать файлы