Ссылка на приватное зеркало нашего сайта всего за 1$. Внимание количество ограничено!!!

2 сезон

iTunes

1 сезон

1

iTunes

iTunes

iTunes

1 сезон

RePack

30

ИГРА 18+

pack

ВАЖНО

!!Акция!!

Alien_RageХит недели

RePack

MK11
pack

Забери бонус

RePack

jed

!!Акция!!

Alien_Rage

RePack

fifa19

RePack

Assassins Creed: Odyssey

RePack

NEED FOR SPEED™ PAYBACK

4 сезон

9 сезон

Бесстыжие 9 сезон

Все сериалы

все сериалы на PB.wtf

RePack

FAR CRY 5
  

Волк у двери / O Lobo atrás da Porta (Фернандо Коимбра / Fernando Coimbra) [2013, Бразилия, триллер, драма, DVDRip, Любительский (одноголосый)] pb.wtf

Волк у двери через торрент pb.wtf

Размер: 1.37 GB | Добавлен: 5 лет 7 мес. назад | Торрент скачан:56 раз
Скачать  

04-03-2015 20:03 Волк у двери Скачать торрент  

Волк у двери / O Lobo atrás da Porta

Год выпуска: 2013
Страна: Бразилия
Жанр: триллер, драма
Продолжительность: 01:37:30
Перевод: Любительский (одноголосый)
Субтитры: Отсутствует
Режиссер: Фернандо Коимбра / Fernando Coimbra
В ролях:


Thalita Carauta, Жулиану Казарре, Мильем Корташ (Bernardo), Леандра Леал (Rosa), Фабиула Наскименту (Sylvia), Isabelle Ribas, Antonio Saboia (Inspetor), Tamara Taxman, Карин Телес, Пауло Тифенталер

Описание:
Похищена девочка. Родители девочки, Сильвиа и Бернарду, и главная подозреваемая, Роза, дают противоречивые показания. Эта самая Роза - любовница Бернарду, с которой тот познакомился в поезде. Но по ходу действия вы- ясняется, что и Сильвия отлично знает Розу, не имея при этом ни малейшего представления о ее связи с Бернарду. Для Сильвии дружба с Розой настоящая отдушина, способ выбраться из каждодневной рутины. А запылавший в ее душе огонь помог вновь разжечь страсть к мужу.

Рейтинг:
Бюджет: BRL 1 200 000
Качество: DVDRip
Формат: AVI
Видео кодек:XviD
Аудио кодек:AC3
Видео: XviD, 720x304 (2.35:1), 1470 kbps, 25 fps, 0,269 bpp
Аудио: AC3 / 5.1 / 48 kHz / 448 kbps / 16 bit - Любительский (одноголосый) [Павел Морозов aka PashaUp]

General
Complete name : D:\_uTorrent_\Volk.u.dveri.2013.L1.DVDRip.avi
Format : AVI
Format/Info : Audio Video Interleave
File size : 1.37 GiB
Duration : 1h 37mn
Overall bit rate : 2 007 Kbps
Writing application : VirtualDubMod 1.5.10.2 (build 2540/release)
Writing library : VirtualDubMod build 2540/release

Video
ID : 0
Format : MPEG-4 Visual
Format profile : Advanced Simple@L5
Format settings, BVOP : 1
Format settings, QPel : No
Format settings, GMC : No warppoints
Format settings, Matrix : Default (MPEG)
Codec ID : XVID
Codec ID/Hint : XviD
Duration : 1h 37mn
Bit rate : 1 471 Kbps
Width : 720 pixels
Height : 304 pixels
Display aspect ratio : 2.35:1
Frame rate : 25.000 fps
Color space : YUV
Chroma subsampling : 4:2:0
Bit depth : 8 bits
Scan type : Progressive
Compression mode : Lossy
Bits/(Pixel*Frame) : 0.269
Stream size : 1.00 GiB (73%)
Writing library : XviD 1.2.1 (UTC 2008-12-04)

Audio
ID : 1
Format : AC-3
Format/Info : Audio Coding 3
Mode extension : CM (complete main)
Codec ID : 2000
Duration : 1h 37mn
Bit rate mode : Constant
Bit rate : 448 Kbps
Channel(s) : 6 channels
Channel positions : Front: L C R, Side: L R, LFE
Sampling rate : 48.0 KHz
Bit depth : 16 bits
Compression mode : Lossy
Stream size : 312 MiB (22%)
Alignment : Split accross interleaves

[/code]
pb.wtf



Скачать Волк у двери через торрент http://i58.fastpic.ru/big/2015/0304/6a/95fd25919e4883cc09e675fed2b6846a.png Скачать фильм Волк у двери через торрент бесплантно в хорошем качестве Описание: Похищена девочка. Родители девочки, Сильвиа и Бернарду, и главная подозреваемая, Роза, дают противоречивые показания. Эта самая ... 10 10 4
Торрент: Зарегистрирован [2015-03-04 20:03] · скачан: 56 раз
Статус: T временная
Размер: 1.37 GB
Как cкачать? Как скачать Волк у двери через торрент | qTorrent

28-11-2019 20:33  

Отключить всю рекламу на сайте

    Дорогой пользователь! Огромная просьба, поблагодарите релизера, оцените раздачу и оставьте свои комментарий, если Вы скачали Волк у двери через торрент бесплатно! Внесите свою лепту в развитие PiratBit!
    Комментировать посты могут только пользователи прошедшие не сложную регистрацию
    Показать сообщения:    

    Волк у двери через торрент
    Скачать бесплатно Волк у двери
    Волк у двери скачать торрент
    Волк у двери смотреть онлайн
    Cкачать фильм Волк у двери бесплатно
    Волк у двери скачать торрент в хорошем качестве
    Волк у двери смотреть онлайн бесплатно в хорошем качестве


    Вы не можете начинать темы
    Вы не можете отвечать на сообщения
    Вы не можете редактировать свои сообщения
    Вы не можете удалять свои сообщения
    Вы не можете голосовать в опросах
    Вы не можете прикреплять файлы к сообщениям
    Вы можете скачивать файлы